Завантажити та скачати торренти українською


Галченя / Kauwboy (2012) Dut | sub Ukr

Нові коментарі

Нова тема   Відповісти
Автор Повідомлення
1101 
Свій


З нами з: 09.07.12
Востаннє: 24.11.16
Повідомлень: 62

2012-10-09 19:55  
Галченя / Kauwboy (2012) Dut | sub Ukr

Галченя / Kauwboy (2012) Dut | sub Ukr


Жанр: драма, сімейний
Країна: Нідерланди



Кіностудія / кінокомпанія: Waterland Film
Режисер: Будевійн Кооле / Boudewijn Koole
Актори: Рік Ленс, Люк Петерс, Кахіт Юлмез, Сюзан Раддер, Ріккі Кооле та інші.

Сюжет:
10-річний Йойо живе з батьком, нічним сторожем. Його мати, кантрі-співачка, нібито гастролює десь в Америці. Одного дня Йойо знаходить мале галченя, яке випало з гнізда, починає піклуватися про нього та на деякий час забуває про всі турботи та неприємності. Життя, здавалося б, налагоджується, але тривога щодо матері все одно не залишає хлопчика...


Фільм-переможець Берлінського кінофестивалю 2012 року:
Приз за найкращий дебют
Приз за найкращу дебютну картину конкурсу для юнацтва
Гран-прі за найкращий художній фільм німецького фонду допомоги дітям


Тривалість: 01:17:52
Якість:
Відео:
кодек:
розмір кадру: 624х336
бітрейт: 1090 кб/с

Аудіо:
мова: голландська
переклад: оригінал
кодек: MP3
бітрейт: 160 кб/с

Субтитри:
мова: українська
тип: програмні (м'які)
формат: *.srt

Скріншоти



Media Info
Complete name : D:\Kauwboy\kauwboy.avi
Format : AVI
Format/Info : Audio Video Interleave
File size : 699 MiB
Duration : 1h 17mn
Overall bit rate mode : Variable
Overall bit rate : 1 255 Kbps
Writing application : VirtualDubMod 1.5.10.2 (build 2540/release)
Writing library : VirtualDubMod build 2540/release

Video
ID : 0
Format : MPEG-4 Visual
Format profile : Advanced [email protected]
Format settings, BVOP : 2
Format settings, QPel : No
Format settings, GMC : No warppoints
Format settings, Matrix : Default (H.263)
Muxing mode : Packed bitstream
Codec ID :
Codec ID/Hint :
Duration : 1h 17mn
Bit rate : 1 090 Kbps
Width : 624 pixels
Height : 336 pixels
Display aspect ratio : 1.857
Frame rate : 25.000 fps
Color space : YUV
Chroma subsampling : 4:2:0
Bit depth : 8 bits
Scan type : Progressive
Compression mode : Lossy
Bits/(Pixel*Frame) : 0.208
Stream size : 607 MiB (87%)
Writing library : 64

Audio
ID : 1
Format : MPEG Audio
Format version : Version 1
Format profile : Layer 3
Mode : Joint stereo
Mode extension : MS Stereo
Codec ID : 55
Codec ID/Hint : MP3
Duration : 1h 17mn
Bit rate mode : Variable
Bit rate : 160 Kbps
Channel(s) : 2 channels
Sampling rate : 48.0 KHz
Compression mode : Lossy
Stream size : 85.0 MiB (12%)
Alignment : Aligned on interleaves
Interleave, duration : 24 ms (0.60 video frame)
Interleave, preload duration : 176 ms
Writing library : LAME3.98r
Encoding settings : -m j -V 4 -q 2 -lowpass 17.5 --abr 160
Джерело: Piratebay
Особиста оцінка: 10 - без зайвих вагань рекомендую всім!


 Трекер:    Зареєстрований   

Завантажити / скачати фільм українською



відео для новачків



 Зареєстрований:   2012-10-09 19:55
 Розмір:   699 MB 
 Оцінка фільму:   10/10 (Голосів: 5)
   
Ваш часовий пояс: GMT + 2 Години

Нова тема   Відповісти