Завантажити та скачати торренти українською


Світлана Весна - Мій рідний край [FLAC] | Pop

Нові коментарі

Нова тема   Відповісти
Автор Повідомлення
tarakan87 
Новенький


З нами з: 27.05.12
Востаннє: 10.12.16
Повідомлень: 12

2012-10-07 10:56  
Світлана Весна - Мій рідний край [FLAC] | Pop

Світлана Весна - Мій рідний край [FLAC] | Pop


Стиль: Pop
Країна, місто: Україна, Івано-Франківськ
Сайти: Офіційний сайт
Видавець: Студія 6 секунд (CD-166)
Пісні:
    01 - Мій рідний край (Муз. - В.Куртяк, сл. - В.Крищенко)
    02 - Весна (Муз. - В.Куртяк, сл. - Н.Романів)
    03 - Чекання любові (Муз. - В.Куртяк, сл. - В.Крищенко)
    04 - Потічок карпатський (Муз. - В.Куртяк, сл. - В.Крищенко)
    05 - Діти України (Музика та слова - В.Куртяк)
    06 - Мої ночі (Музика та слова - В.Куртяк)
    07 - Літній дощ (Музика та слова - В.Куртяк)
    08 - Будь моїм (Муз. - В.Куртяк, сл. - В.Крищенко)
    09 - А сніг летів (Музика та слова - В.Куртяк)
    10 - Моє літо (Музика та слова - В.Куртяк)
    11 - Україна (Музика та слова - В.Куртяк)
    12 - Мій рідний край (Бонус трек - інструментал)

    Медіа:
    13 - відеокліп "Мій рідний край"
    14 - відеокліп "Весна"
    15 - фотосесія "Посмішка весни" (25 фото)

    відео:
    Мій рідний край
    Тривалість: 00:03:25
    Якість: MPEG-4
    кодек: WMV
    розмір кадру: 640 x 480
    бітрейт: 895 кб/с

    Аудіо:
    мова: українська
    кодек: MP3
    бітрейт: 96 кб/с
    Скріншоти:
    info
    General
    Complete name : L:\Media\Music\Світлана Весна - 2010 - Мій рідний край (lossless)\Video\Miy_ridnuy_kray.wmv
    Format : Windows Media
    File size : 26.1 MiB
    Duration : 3mn 38s
    Overall bit rate mode : Constant
    Overall bit rate : 1 002 Kbps
    Maximum Overall bit rate : 1 002 Kbps
    Encoded date : UTC 2010-07-05 16:19:46.828

    Video
    ID : 2
    Format : VC-1
    Format profile : [email protected]
    Codec ID : WMV3
    Codec ID/Info : Windows Media Video 9
    Codec ID/Hint : WMV3
    Description of the codec : Windows Media Video 9
    Duration : 3mn 38s
    Bit rate mode : Constant
    Bit rate : 895 Kbps
    Width : 640 pixels
    Height : 480 pixels
    Display aspect ratio : 4:3
    Frame rate : 23.976 fps
    Nominal frame rate : 25.000 fps
    Bit depth : 8 bits
    Scan type : Progressive
    Compression mode : Lossy
    Bits/(Pixel*Frame) : 0.122
    Stream size : 23.3 MiB (89%)
    Language : English (US)

    Audio
    ID : 1
    Format : WMA
    Format version : Version 2
    Codec ID : 161
    Codec ID/Info : Windows Media Audio
    Description of the codec : Windows Media Audio 9.2 - 96 kbps, 44 kHz, stereo (A/V) 1-pass CBR
    Duration : 3mn 38s
    Bit rate mode : Constant
    Bit rate : 96.0 Kbps
    Channel(s) : 2 channels
    Sampling rate : 44.1 KHz
    Bit depth : 16 bits
    Stream size : 2.50 MiB (10%)
    Language : English (US)
    Весна
    Тривалість: 00:04:13
    Якість: MPEG-4
    кодек: WMV
    розмір кадру: 640 x 480
    бітрейт: 894 кб/с

    Аудіо:
    мова: українська
    кодек: MP3
    бітрейт: 96 кб/с

    Скріншоти:
    info
    General
    Complete name : L:\Media\Music\Світлана Весна - 2010 - Мій рідний край (lossless)\Video\Vesna.wmv
    Format : Windows Media
    File size : 26.5 MiB
    Duration : 3mn 42s
    Overall bit rate mode : Constant
    Overall bit rate : 999 Kbps
    Maximum Overall bit rate : 1 002 Kbps
    Encoded date : UTC 2010-07-05 16:06:31.781

    Video
    ID : 2
    Format : VC-1
    Format profile : [email protected]
    Codec ID : WMV3
    Codec ID/Info : Windows Media Video 9
    Codec ID/Hint : WMV3
    Description of the codec : Windows Media Video 9
    Duration : 3mn 42s
    Bit rate mode : Constant
    Bit rate : 895 Kbps
    Width : 640 pixels
    Height : 480 pixels
    Display aspect ratio : 4:3
    Frame rate : 23.976 fps
    Nominal frame rate : 25.000 fps
    Bit depth : 8 bits
    Scan type : Progressive
    Compression mode : Lossy
    Bits/(Pixel*Frame) : 0.122
    Stream size : 23.8 MiB (90%)
    Language : English (US)

    Audio
    ID : 1
    Format : WMA
    Format version : Version 2
    Codec ID : 161
    Codec ID/Info : Windows Media Audio
    Description of the codec : Windows Media Audio 9.2 - 96 kbps, 44 kHz, stereo (A/V) 1-pass CBR
    Duration : 3mn 42s
    Bit rate mode : Constant
    Bit rate : 96.0 Kbps
    Channel(s) : 2 channels
    Sampling rate : 44.1 KHz
    Bit depth : 16 bits
    Stream size : 2.55 MiB (10%)
    Language : English (US)

Тривалість: 00:44:39
Мова: українська
Аудіо-кодек: FLAC
Бітрейт: 1051 кб/с
Джерело: CD

Якщо Ви справді бажаєте підтримати українське - після прослуховування, якщо музика вам сподобалась,
придбайте ліцензійний диск.
Підтримаймо вітчизняних виконавців!


Срібний реліз (на рейтинг впливає 50% завантаженого)
 Трекер:    Зареєстрований   

Завантажити / скачати українську музику



відео для новачків



 Зареєстрований:   2012-10-07 10:56
 Розмір:   550 MB 
 Оцінка музики:   10/10 (Голосів: 9)
   
fv007 
VIP


З нами з: 01.01.10
Востаннє: 11.12.16
Повідомлень: 449

2014-10-26 12:36  
роздайте, будь ласка
ssTAss 
Модератор музики


З нами з: 05.07.08
Востаннє: 11.12.16
Повідомлень: 10958

2014-10-26 14:46  
зараз стану на роздачу
fv007 
VIP


З нами з: 01.01.10
Востаннє: 11.12.16
Повідомлень: 449

2014-10-26 15:43  
ssTAss, дякую. Залишусь на роздачі
Ваш часовий пояс: GMT + 2 Години

Нова тема   Відповісти