Завантажити та скачати торренти українською


Ясновидець (Сезон 3) / Psych (Season 3) (2008-2009) Ukr/Eng

Нові коментарі

Нова тема   Відповісти
Автор Повідомлення
SuperContik 
VIP


З нами з: 25.02.08
Востаннє: 13.09.16
Повідомлень: 332

2012-10-05 17:07  
Ясновидець (Сезон 3) / Psych (Season 3) (2008-2009) Ukr/Eng

Ясновидець (Сезон 3) / Psych (Season 3) (2008-2009) Ukr/Eng


Жанр: комедія, кримінальний, детектив
Країна: США


Режисер: Мел Демскі, Стів Френкс, Стівен Серджик та інші
Актори/ролі озвучують: Джеймс Родей, Дьюлі Хіл, Тімоті Омандсен, Меггі Лоунсон, Кірстен Нельсон, Корбін Бернсен та інші

Сюжет:
Шон Спенсер - молодий консультант поліції в Санта-Барбарі, чия тонко розвинена спостережливість і неординарні дедуктивні здібності дозволяють йому переконати всіх у тому, що він ясновидець. Батько Шона - співробітник поліції - з дитинства вчив сина помічати найдрібніші деталі навколишнього оточення, і тепер Шон, використовуючи свої унікальні навички, разом зі своїм другом Гасом допомагає розслідувати складні кримінальні справи.
Перелік серій:
01 Ghosts
02 Murder?...Anyone?...Anyone?...Bueller?
03 Daredevils!
04 The Greatest Adventure in the History of Basic Cable
05 Disco Didn't Die. It Was Murdered!
06 There Might Be Blood
07 Talk Derby to Me
08 Gus Walks into a Bank
09 Christmas Joy
10 Six Feet Under the Sea
11 Lassie Did a Bad, Bad Thing
12 Earth, Wind and...Wait for It
13 Any Given Friday Night at 10PM, 9PM Central
14 Truer Lies
15 Tuesday the 17th
16 An Evening with Mr. Yang
Тривалість: 1 серія: 43:00 (цілком серій: 16)
Якість:
Відео:
кодек:
розмір кадру: 624x352
бітрейт: 1000 кб/с

Аудіо # 1:
мова: українська
переклад: двоголосий закадровий
кодек: 2.0
бітрейт: 192 кб/с

Аудіо # 2:
мова: англійська
переклад: оригінал
кодек: MP3
бітрейт: 128 кб/с

Джерело озвучення:


Скріншоти


За наданий реліз велика подяка BILko

Джерело: &
Особиста оцінка: 10 - без зайвих вагань рекомендую всім!


Бронзовий реліз (на рейтинг впливає 75% завантаженого)
 Трекер:    Зареєстрований   

Завантажити / скачати серіал українською



відео для новачків



 Зареєстрований:   2012-10-05 17:07
 Розмір:   6.4 GB 
 Оцінка серіалу:   10/10 (Голосів: 6)
   
karvai0 
Відео Гуртом - запис з ТБ
Відео Гуртом - запис з ТБ


З нами з: 18.01.10
Востаннє: 09.09.16
Повідомлень: 3686

2012-10-05 18:10  
SuperContik написано:
кодек: 2.0

не ?

SuperContik 
VIP


З нами з: 25.02.08
Востаннє: 13.09.16
Повідомлень: 332

2012-10-05 18:51  
karvai0
Опечатка, дякс)

Толя 
VIP


З нами з: 15.01.09
Востаннє: 02.12.16
Повідомлень: 394

2012-10-05 19:09  
SuperContik написано:
Ясновидець (Сезон 3) / Psych (Season 3)

А попередні сезони будуть?

SuperContik 
VIP


З нами з: 25.02.08
Востаннє: 13.09.16
Повідомлень: 332

2012-10-05 19:14  
Толя
Це треба в пана BILko питатись

prosto tak 
Новенький


З нами з: 01.02.12
Востаннє: 02.12.16
Повідомлень: 22

2012-10-05 20:06  
не думала шо ясновидець буде українською))така класна новина для мене
SuperContik 
VIP


З нами з: 25.02.08
Востаннє: 13.09.16
Повідомлень: 332

2012-10-05 20:10  
prosto tak
Він щонеділі по новому йде, щоправда десь так годинка 2-3 ночі.

HetmanNet 
VIP


З нами з: 20.03.09
Востаннє: 03.12.16
Повідомлень: 425

2012-10-05 22:29  
При відкритті у VLC бачу помилку:
Цитата:
Немає відповідного модуля декодера:
VLC не підтримує формат аудіо або відео «mp4v». На жаль, виправити це не можна.

А в описі про mp4v ні слова:
Цитата:
Відео:
кодек:
розмір кадру: 624x352
бітрейт: 1000 кб/с

Аудіо # 1:
мова: українська
переклад: двоголосий закадровий
кодек: 2.0
бітрейт: 192 кб/с

Аудіо # 2:
мова: англійська
переклад: оригінал
кодек: MP3
бітрейт: 128 кб/с

Щось не збігається, бо в інших плеєрах є інші помилки, наприклад "Невідповідність між вказаним модулем декодера та контейнером відео", "Не можливо знайти модуль декодування «???????? » " (при тому плеєр який читає без проблем, але за умови правильно вказаних параметрів декодування у файлі), "Зазначеного модуля декодування не знайдено".. одним словом, через що ви його створювали? (бо "в чому" тут недоречно)

SuperContik 
VIP


З нами з: 25.02.08
Востаннє: 13.09.16
Повідомлень: 332

2012-10-06 07:32  
HetmanNet
Ну незнаю. На компютері без всяких проблем відкриває через медіа плеєр класік, також дивлюся його на допотопному ДВД плеєрі якому вже років 7 він про мп4 навіть і не чув)

Ось Вам медіа інфо
Перша серія
General
Complete name : E:\Psych - Season 3 (2008-2009) [Ukr, Eng]\Psych - S03E01 (2008-2009) [Ukr, Eng].avi
Format : AVI
Format/Info : Audio Video Interleave
File size : 411 MiB
Duration : 42mn 59s
Overall bit rate mode : Variable
Overall bit rate : 1 335 Kbps
Writing application : VirtualDubMod 1.5.10.2 (build 2540/release)
Writing library : VirtualDubMod build 2540/release

Video
ID : 0
Format : MPEG-4 Visual
Format profile : Advanced [email protected]
Format settings, BVOP : 2
Format settings, QPel : No
Format settings, GMC : No warppoints
Format settings, Matrix : Default (H.263)
Muxing mode : Packed bitstream
Codec ID :
Codec ID/Hint :
Duration : 42mn 59s
Bit rate : 991 Kbps
Width : 624 pixels
Height : 352 pixels
Display aspect ratio : 16:9
Frame rate : 23.976 fps
Color space : YUV
Chroma subsampling : 4:2:0
Bit depth : 8 bits
Scan type : Progressive
Compression mode : Lossy
Bits/(Pixel*Frame) : 0.188
Stream size : 305 MiB (74%)
Writing library : 1.2.1 (UTC 2008-12-04)

Audio #1
ID : 1
Format : AC-3
Format/Info : Audio Coding 3
Mode extension : CM (complete main)
Codec ID : 2000
Duration : 42mn 59s
Bit rate mode : Constant
Bit rate : 192 Kbps
Channel(s) : 2 channels
Channel positions : Front: L R
Sampling rate : 48.0 KHz
Bit depth : 16 bits
Compression mode : Lossy
Stream size : 59.0 MiB (14%)
Alignment : Split accross interleaves
Interleave, duration : 42 ms (1.00 video frame)
Interleave, preload duration : 500 ms

Audio #2
ID : 2
Format : MPEG Audio
Format version : Version 1
Format profile : Layer 3
Mode : Joint stereo
Mode extension : MS Stereo
Codec ID : 55
Codec ID/Hint : MP3
Duration : 42mn 59s
Bit rate mode : Variable
Bit rate : 135 Kbps
Channel(s) : 2 channels
Sampling rate : 48.0 KHz
Compression mode : Lossy
Delay relative to video : 8ms
Stream size : 41.4 MiB (10%)
Alignment : Aligned on interleaves
Interleave, duration : 24 ms (0.58 video frame)
Interleave, preload duration : 142 ms
Та і скрін шо на компі все йде


Тобто проблема у Вас на компютері.

merlot 
Частий відвідувач


З нами з: 19.03.11
Востаннє: 30.11.16
Повідомлень: 32

2012-10-06 12:05  
Суперовий серіал , класний гумор (зачасту тонкий ) , сюжети так собі , але відрази не викликає =) дивишся і прешся
BILko 
Відео Гуртом - підтримка та поширення
Відео Гуртом - підтримка та поширення


З нами з: 08.04.10
Востаннє: 28.11.16
Повідомлень: 383

2012-10-06 23:33  
Новий канал по 4-му колу показує 3-ий сезон (щоразу з гіршим звуком (якщо до музики прислухатись).

Ріп в мережі один (нажаль). Щоправда і цей ріп дивився на роботі на старому ДВД програвачі і все грало (на компі тим паче буде грати).

Я його не збирався робити поки не побачив першу серію і як Родей танцює Happy . Можна спробувати написати на Новий канал (вони всі рази показували Ясновидця з 2 до 4 ночі). В нас же типу рейтинги рахують

Як через VLC може не програвати я навіть не уявляю (дивився лише через VLC а потім спробував через MPC та KMPlayer. Все грало)

Толя 
VIP


З нами з: 15.01.09
Востаннє: 02.12.16
Повідомлень: 394

2012-10-07 20:00  
BILko написано:
Новий канал по 4-му колу показує 3-ий сезон

Жаль. Почекаю коли з'явиться перший сезон (якщо взагалі з'явиться)

Robar III 
Попереджень: 2
Попереджень: 2 


З нами з: 18.08.11
Востаннє: 11.11.16
Повідомлень: 1932

2015-02-05 02:59  
Станьте на роздачу, будь ласка
xz_SLIM_zx 
VIP


З нами з: 15.03.12
Востаннє: 27.11.16
Повідомлень: 346

2015-02-05 18:22  
Очікую перших 2 сезони, зважаючи на позитивні відгуки і достойний опис
Robar III 
Попереджень: 2
Попереджень: 2 


З нами з: 18.08.11
Востаннє: 11.11.16
Повідомлень: 1932

2015-10-27 21:58  
Можливо помістите в архів???
Ваш часовий пояс: GMT + 2 Години

Нова тема   Відповісти