Завантажити та скачати торренти українською


Los Colorados - Шміраки (2012) [FLAC] | Pop Rock

Нові коментарі

Нова тема   Відповісти
Останній раз роздавалося Olegka-rovno (2016-12-03)
Автор Повідомлення
BOLERO 
Модератор серіалів


З нами з: 17.09.08
Востаннє: 02.12.16
Повідомлень: 660

2012-10-04 16:41  
Los Colorados - Шміраки (2012) [FLAC] | Pop Rock

Los Colorados - Шміраки (2012) [FLAC] | Pop Rock


Стиль: Pop Rock
Країна, місто: Україна, Тернопіль
Сайти: Офіційний сайт
Видавець: Наш Формат
Виконавці:
Руслан "Приступнік" Приступа - вокал, бакал, гітара, баян
Ростислав "Рослик" Фук - гітара, bad-вокал
Назар "Амадей" Юник - клавішні, тру-вокал
Сергій Масик - бас-гітара, бик-вокал
Лесик Драчук - барабани, блек-вокал

Пісні:
    1. Інді Бой (рок-прочит)
    2. Hot-N-Cold
    3. Твоя Мама
    4. Tik Tok
    5. Du Hust
    6. Тілько Ві Львові
    7. Бесаме
    8. U Can't Toch This
    9. I Love Rock'n Roll
    10. My Sweet Mila
    11. Let it Be
    12. I like to Move it
    13. Be My Lover
    14. Інді Бой (налегко)
15. Only in Lemberg (відео)




Тривалість: 02:44
Якість: MPEG
Відео:
кодек: MPEG2
розмір кадру: 768 x 576
бітрейт: 8000 кб/с

Аудіо:
мова: англійська
кодек: MPEG Audio
бітрейт: 224 кб/с
log

Exact Audio Copy V1.0 beta 3 from 29. August 2011

EAC extraction logfile from 2. October 2012, 17:34

Los Colorados / Shmiraky

Used drive : MATSHITADVD-RAM UJ890 Adapter: 1 ID: 0

Read mode : Secure
Utilize accurate stream : Yes
Defeat audio cache : Yes
Make use of C2 pointers : No

Read offset correction : 0
Overread into Lead-In and Lead-Out : No
Fill up missing offset samples with silence : Yes
Delete leading and trailing silent blocks : No
Null samples used in CRC calculations : Yes
Used interface : Native Win32 interface for Win NT & 2000

Used output format : User Defined Encoder
Selected bitrate : 768 kBit/s
Quality : High
Add ID3 tag : No
Command line compressor : C:\Program Files\Exact Audio Copy\FLAC\FLAC.EXE
Additional command line options : -6 -V -T "ARTIST=%artist%" -T "TITLE=%title%" -T "ALBUM=%albumtitle%" -T "DATE=%year%" -T "TRACKNUMBER=%tracknr%" -T "GENRE=%genre%" -T "COMMENT=%comment%" -T "BAND=%albuminterpret%" -T "ALBUMARTIST=%albuminterpret%" -T "COMPOSER=%composer%" %haslyrics%--tag-from-file=LYRICS="%lyricsfile%"%haslyrics% -T "DISCNUMBER=%cdnumber%" -T "TOTALDISCS=%totalcds%" -T "TOTALTRACKS=%numtracks%" %hascover%--picture="%coverfile%"%hascover% %source% -o %dest%

TOC of the extracted CD

Track | Start | Length | Start sector | End sector
---------------------------------------------------------
1 | 0:00.00 | 3:00.66 | 0 | 13565
2 | 3:00.66 | 3:43.32 | 13566 | 30322
3 | 6:44.23 | 3:56.56 | 30323 | 48078
4 | 10:41.04 | 2:50.60 | 48079 | 60888
5 | 13:31.64 | 3:53.17 | 60889 | 78380
6 | 17:25.06 | 2:33.43 | 78381 | 89898
7 | 19:58.49 | 3:17.24 | 89899 | 104697
8 | 23:15.73 | 2:38.56 | 104698 | 116603
9 | 25:54.54 | 2:42.18 | 116604 | 128771
10 | 28:36.72 | 3:02.20 | 128772 | 142441
11 | 31:39.17 | 3:42.28 | 142442 | 159119
12 | 35:21.45 | 2:55.05 | 159120 | 172249
13 | 38:16.50 | 3:48.70 | 172250 | 189419
14 | 42:05.45 | 2:52.39 | 189420 | 202358
15 | 47:30.09 | 18:39.50 | 213759 | 297733

Range status and errors

Selected range (Sectors 0-202358)

Filename C:\Users\user\Music\2012-Shmiraky.wav

Peak level 100.0 %
Extraction speed 2.5 X
Range quality 100.0 %
Copy CRC 2F154709
Copy OK

No errors occurred

End of status report
Тривалість: 00:44:52
Мова: українська (1,3,6,7,14), англійська (2,4,8,9-13), німецька (5)
Аудіо-кодек: FLAC
Бітрейт: 768 кб/с
Джерело: Власний диск

Додаткова інформація:
У Мистецькій Агенції «Наш Формат» вийшов перший український реліз популярного в Європі та США бенду «Los Colorados» . Альбом має назву «ШМІРАКИ» і вперше був презентований на львівському Форумі видавців.
Ватага «Los Colorados» широко відома у Європі та Америці завдяки своїм іронічним каверам на світові музичні хітів. Перший рімейк пісні Кетті Перрі «Hot and Cold» здобув понад три мільйони переглядів на Youtube і забезпечив хлопцям запрошення мало не на кожен рок-фестиваль у Європі. Преса пояснює такий успіх несподіваним, абсурдним та абсолютно чарівним поєднанням хітової поп-мелодії, нікому не відомих тернопільських хлопів, дикого акценту, баяну «Білорусь» і парадних костюмів а-ля «перший хлопець на селі».
«Взагалі-то у нас термін «Лос Колорадо» асоціюється з тим, що невмирущі, розумієте? Бо колорадські жуки – це така тварь, яку вивести неможливо» – пояснює назву гурту його лідер Руслан Приступа.
До платівки «ШМІРАКИ» увійдуть, як відомі авторські переспіви, що принесли ватазі світову славу, так і їх власні пісні, а також бонус — кліп Only in Lemberg.
Перший і на даний момент єдиний альбом “Move It” гурт випустив у Німеччині і не в звичайному видавництві. Хлопцями опікується музичний лейбл “Motor Entertainment” , який працював з культовим німецьким гуртом “Rammstein”.




Якщо Ви справді бажаєте підтримати українське - після прослуховування, якщо музика вам сподобалась,
придбайте ліцензійний диск.
Підтримаймо вітчизняних виконавців!


Срібний реліз (на рейтинг впливає 50% завантаженого)
 Трекер:    Зареєстрований   

Завантажити / скачати українську музику



відео для новачків



 Зареєстрований:   2012-10-04 16:41
 Розмір:   528 MB 
 Оцінка музики:   9.7/10 (Голосів: 12)
   
ssTAss 
Модератор музики


З нами з: 05.07.08
Востаннє: 03.12.16
Повідомлень: 10930

2012-10-04 16:58  
BOLERO написано:
15. Only in Lemberg (відео)

треба вказати параметри і зробити скріншоти

BOLERO 
Модератор серіалів


З нами з: 17.09.08
Востаннє: 02.12.16
Повідомлень: 660

2012-10-04 17:18  
зробив, начебто все.
ssTAss 
Модератор музики


З нами з: 05.07.08
Востаннє: 03.12.16
Повідомлень: 10930

2012-10-04 20:54  
BOLERO написано:
зробив, начебто все.

дякую Вам за роботу, але є одне але - реліз цей не буде відтворюватись
щось не до кінця Ви розібрались з налаштуваннями і користуванням прогою
та й всі теги/назви треба заповнювати (в EAC-у, до ріпання)

поправив куе-файл (може і не зовсім вірно, але тепер буде читатись)
ось
cue
REM DISCID BE0F810F
REM COMMENT "ExactAudioCopy v1.0b3"
PERFORMER "Los Colorados"
TITLE "Шміраки"
REM DATE 2012
REM GENRE "Pop Rock"
FILE "2012-Shmiraky.flac" WAVE
TRACK 01 AUDIO
TITLE "Інді Бой (рок-прочит)"
PERFORMER "Los Colorados"
FLAGS DCP
INDEX 01 00:00:00
TRACK 02 AUDIO
TITLE "Hot-N-Cold"
PERFORMER "Los Colorados"
FLAGS DCP
INDEX 01 03:00:66
TRACK 03 AUDIO
TITLE "Твоя Мама"
PERFORMER "Los Colorados"
FLAGS DCP
INDEX 01 06:44:23
TRACK 04 AUDIO
TITLE "Tik Tok"
PERFORMER "Los Colorados"
FLAGS DCP
INDEX 01 10:41:04
TRACK 05 AUDIO
TITLE "Du Hust"
PERFORMER "Los Colorados"
FLAGS DCP
INDEX 01 14:31:64
TRACK 06 AUDIO
TITLE "Тілько Ві Львові"
PERFORMER "Los Colorados"
FLAGS DCP
INDEX 01 17:25:06
TRACK 07 AUDIO
TITLE "Бесаме"
PERFORMER "Los Colorados"
FLAGS DCP
INDEX 01 19:58:49
TRACK 08 AUDIO
TITLE "U Can't Toch This"
PERFORMER "Los Colorados"
FLAGS DCP
INDEX 01 23:15:73
TRACK 09 AUDIO
TITLE "I Love Rock'n Roll"
PERFORMER "Los Colorados"
FLAGS DCP
INDEX 01 25:54:54
TRACK 10 AUDIO
TITLE "My Sweet Mila"
PERFORMER "Los Colorados"
FLAGS DCP
INDEX 01 28:36:72
TRACK 11 AUDIO
TITLE "Let it Be"
PERFORMER "Los Colorados"
FLAGS DCP
INDEX 01 31:39:17
TRACK 12 AUDIO
TITLE "I like to Move it"
PERFORMER "Los Colorados"
FLAGS DCP
INDEX 01 35:21:45
TRACK 13 AUDIO
TITLE "Be My Lover"
PERFORMER "Los Colorados"
FLAGS DCP
INDEX 01 38:16:50
TRACK 14 AUDIO
TITLE "Інді Бой (налегко)"
PERFORMER "Los Colorados"
FLAGS DCP
INDEX 01 42:30:09
до всіх - просто створіть собі копію куе-файлу, куди скопіюйте все, що під спойлером
назвіть той куе 2012-Shmiraky.cue, киньте в ту саму папку і користуйтесь на здоров'я
тепер буде відкривати і програвати

BOLERO 
Модератор серіалів


З нами з: 17.09.08
Востаннє: 02.12.16
Повідомлень: 660

2012-10-04 23:21  
ssTAss
дякую за зауваження.

мені поміняти куе файл і перезалити торент? чи просто поміняти куе файл(він вплине на торент файл?)?

ssTAss 
Модератор музики


З нами з: 05.07.08
Востаннє: 03.12.16
Повідомлень: 10930

2012-10-04 23:40  
BOLERO написано:
мені поміняти куе файл і перезалити торент? чи просто поміняти куе файл(він вплине на торент файл?)?

ні, не міняйте
краще переріпати диск, бо не зовсім впевнений, що зробив ідеально
просто надав куе, бо через Ваш ніхто не запустить диск..
якщо щось будете змінювати (чи додавати), то зміняться файли в роздачі і треба буде створювати новий торрент

Bor 
Новенький


З нами з: 23.04.09
Востаннє: 26.11.16
Повідомлень: 8

2012-10-07 14:51  
дякую за реліз
цікаво послухати що там хлопці напридумували Happy

а з куе файлом дійсно тре щось робити Wink (1)

Юра2278 
Новенький


З нами з: 27.06.12
Востаннє: 18.05.13
Повідомлень: 2

2012-11-25 08:53  
Якщо Ви справді бажаєте підтримати українське - після прослуховування, якщо музика вам сподобалась,
придбайте ліцензійний диск. Де купити?

ssTAss 
Модератор музики


З нами з: 05.07.08
Востаннє: 03.12.16
Повідомлень: 10930

2012-11-25 14:38  
Юра2278 написано:
Де купити?

http://nashformat.ua/music/mp3/ShMIRAKY

OSx86 
Частий відвідувач


З нами з: 15.09.12
Востаннє: 12.11.16
Повідомлень: 39

2013-05-13 14:08  
ssTAss
Там CUE не вірний, 5й трек залазить до 4го, а 14й в 13й... я його підправив
Кому цікаво, виправлений CUE
"cue sheet"


REM DISCID BE0F810F
REM COMMENT "ExactAudioCopy v1.0b3"
PERFORMER "Los Colorados"
TITLE "Шміраки"
REM DATE 2012
REM GENRE "Pop Rock"
FILE "2012-Shmiraky.flac" WAVE
TRACK 01 AUDIO
TITLE "Інді Бой (рок-прочит)"
PERFORMER "Los Colorados"
FLAGS DCP
INDEX 01 00:00:00
TRACK 02 AUDIO
TITLE "Hot-N-Cold"
PERFORMER "Los Colorados"
FLAGS DCP
INDEX 01 03:00:66
TRACK 03 AUDIO
TITLE "Твоя Мама"
PERFORMER "Los Colorados"
FLAGS DCP
INDEX 01 06:44:23
TRACK 04 AUDIO
TITLE "Tik Tok"
PERFORMER "Los Colorados"
FLAGS DCP
INDEX 01 10:41:04
TRACK 05 AUDIO
TITLE "Du Hust"
PERFORMER "Los Colorados"
FLAGS DCP
INDEX 01 13:31:64
TRACK 06 AUDIO
TITLE "Тілько Ві Львові"
PERFORMER "Los Colorados"
FLAGS DCP
INDEX 01 17:25:06
TRACK 07 AUDIO
TITLE "Бесаме"
PERFORMER "Los Colorados"
FLAGS DCP
INDEX 01 19:58:49
TRACK 08 AUDIO
TITLE "U Can't Toch This"
PERFORMER "Los Colorados"
FLAGS DCP
INDEX 01 23:15:73
TRACK 09 AUDIO
TITLE "I Love Rock'n Roll"
PERFORMER "Los Colorados"
FLAGS DCP
INDEX 01 25:54:54
TRACK 10 AUDIO
TITLE "My Sweet Mila"
PERFORMER "Los Colorados"
FLAGS DCP
INDEX 01 28:36:72
TRACK 11 AUDIO
TITLE "Let it Be"
PERFORMER "Los Colorados"
FLAGS DCP
INDEX 01 31:39:17
TRACK 12 AUDIO
TITLE "I like to Move it"
PERFORMER "Los Colorados"
FLAGS DCP
INDEX 01 35:21:45
TRACK 13 AUDIO
TITLE "Be My Lover"
PERFORMER "Los Colorados"
FLAGS DCP
INDEX 01 38:16:50
TRACK 14 AUDIO
TITLE "Інді Бой (налегко)"
PERFORMER "Los Colorados"
FLAGS DCP
INDEX 01 42:05:09
Графа артиста може не в кожному плеєрі вірно відображатись, але то вже баг із FLAC, там він прописаний як Unknown

Ваш часовий пояс: GMT + 2 Години

Нова тема   Відповісти