Завантажити та скачати торренти українською


На межі / Man on a Ledge (2012) 720p 2xUkr/Eng | Sub Ukr/Eng

Нові коментарі

Нова тема   Відповісти
Автор Повідомлення
DеLight 
Відео Гуртом - фільмокрай
Відео Гуртом - фільмокрай


З нами з: 24.08.11
Востаннє: 17.11.16
Повідомлень: 664

2012-10-03 18:04  
На межі / Man on a Ledge (2012) 720p 2xUkr/Eng | Sub Ukr/Eng

На межі / Man on a Ledge (2012) 720p 2xUkr/Eng | Sub Ukr/Eng


«Тільки невинного можна загнати так високо»


Альтернативні обкладинки










Жанр: екшн, кримінальний, трилер
Країна: США



Кіностудія / кінокомпанія: Di Bonaventura Pictures, Summit Entertainment



Асгер Лет / Asger Leth

Сем Вортінгтон / Sam Worthington, Елізабет Бенкс / Elizabeth Banks, Вільям Седлер / William Sadler, Ентоні Макі / Anthony Mackie, Генезіс Родрігес / Genesis Rodriguez, Джеймі Белл / Jamie Bell, Едвард Бернс / Edward Burns, Тітус Уеллівер / Titus Welliver, Ед Харріс / Ed Harris та інші

Екс-поліцейський, обвинувачений у злочині, якого він нібито не скоював, збирається покінчити життя самогубством, скинувшись з даху одного з готелів на Манхеттені. З ним у переговори вступає психолог нью-йоркської поліції. Напруга наростає з кожною хвилиною, на площу стягуються наряди спецпідрозділів, натовп наповнюється жіночими криками. А в цей час на місці події, прямо під носом у поліції, відбувається грандіозне пограбування століття: невідомі викрадають унікальні діаманти...



Тривалість: 01:42:23
Якість: 720p [Man on a Ledge (2012) BD-Remux 1080p - BLUEBIRD]

Відео:
кодек:
розмір кадру: 1280 x 536
бітрейт: 5 175 кб/с

Аудіо #1:
мова: українська
переклад: багатоголосий закадровий (псевдо дубляж)
кодек: 2.0
бітрейт: 192 кб/с

Джерело озвучення:


Аудіо #2:
мова: українська
переклад: одноголосий закадровий
кодек: 2.0
бітрейт: 256 кб/с

Джерело озвучення:


Аудіо #3:
мова: англійська
переклад: оригінал
кодек: 5.1
бітрейт: 384 кб/с

Субтитри #1:
мова: українська
тип: програмні (м'які)
формат: *.srt

Субтитри #2:
мова: англійська
тип: програмні (м'які)
формат: *.srt


Official Trailer (HD)


log & MediaInfo

Код:
avs [info]: 1280x536p 1:1 @ 2500000/104271 fps (cfr)
  [info]: using SAR=1/1
  [info]: using cpu capabilities: MMX2 SSE2Fast SSSE3 FastShuffle SSE4.2
  [info]: profile High, level 4.1

  [info]: frame I:1532 Avg QP:15.72 size:140229
  [info]: frame P:29418 Avg QP:18.55 size: 50259
  [info]: frame B:116338 Avg QP:20.44 size: 19585
  [info]: consecutive B-frames: 2.1% 2.1% 4.9% 13.7% 17.6% 40.6% 10.1% 4.8% 2.9% 1.2%
  [info]: mb I I16..4: 16.6% 62.0% 21.3%
  [info]: mb P I16..4: 1.2% 16.5% 1.5% P16..4: 33.0% 26.2% 15.6% 0.0% 0.0% skip: 6.0%
  [info]: mb B I16..4: 0.0% 2.5% 0.1% B16..8: 44.1% 13.4% 4.9% direct: 7.2% skip:27.8% L0:45.8% L1:45.8% BI: 8.4%
  [info]: 8x8 transform intra:84.9% inter:59.2%
  [info]: direct mvs spatial:98.6% temporal:1.4%
  [info]: coded y,uvDC,uvAC intra: 95.2% 84.4% 66.1% inter: 40.2% 28.1% 9.5%
  [info]: i16 v,h,dc,p: 39% 10% 22% 28%
  [info]: i8 v,h,dc,ddl,ddr,vr,hd,vl,hu: 12% 7% 11% 10% 13% 12% 12% 11% 12%
  [info]: i4 v,h,dc,ddl,ddr,vr,hd,vl,hu: 13% 9% 5% 9% 15% 13% 13% 11% 12%
  [info]: i8c dc,h,v,p: 46% 20% 18% 16%
  [info]: Weighted P-Frames: Y:1.6% UV:0.7%
  [info]: ref P L0: 41.5% 9.9% 20.1% 6.7% 6.5% 3.7% 3.9% 1.7% 1.9% 1.3% 1.5% 1.1% 0.1% 0.0%
  [info]: ref B L0: 68.3% 13.2% 6.7% 3.7% 2.4% 2.0% 1.5% 0.9% 0.7% 0.4% 0.2%
  [info]: ref B L1: 91.5% 8.5%
  [info]: kb/s:5172.39

  [total]: encoded 147288 frames, 1.72 fps, 5172.39 kb/s

------------------------------------------------------------------------

General
Unique ID                      : 170148110867996716306824829217140834545 (0x8001558C2CF1FD38A814E1D1E11300F1)
Complete name                  : D:\Torrents\Man on a Ledge (2012) 720p [2xUkr, Eng] [Hurtom & DHT-Movies].mkv
Format                         : Matroska
Format version                 : Version 2
File size                      : 4.30 GiB
Duration                       : 1h 42mn
Overall bit rate               : 6 007 Kbps
Movie name                     : Man on a Ledge (2012) 720p [2xUkr, Eng] [Hurtom & DHT-Movies] by Delight
Encoded date                   : UTC 2012-10-03 15:51:19
Writing application            : mkvmerge v5.8.0 ('No Sleep / Pillow') built on Sep  2 2012 15:37:04
Writing library                : libebml v1.2.3 + libmatroska v1.3.0

Video
ID                             : 1
Format                         : AVC
Format/Info                    : Advanced Video Codec
Format profile                 : [email protected]
Format settings, CABAC         : Yes
Format settings, ReFrames      : 12 frames
Codec ID                       : V_MPEG4/ISO/AVC
Duration                       : 1h 42mn
Bit rate                       : 5 175 Kbps
Width                          : 1 280 pixels
Height                         : 536 pixels
Display aspect ratio           : 2.40:1
Frame rate mode                : Constant
Frame rate                     : 23.976 fps
Color space                    : YUV
Chroma subsampling             : 4:2:0
Bit depth                      : 8 bits
Scan type                      : Progressive
Bits/(Pixel*Frame)             : 0.315
Stream size                    : 3.62 GiB (84%)
Title                          : Man on a Ledge (2012) 720p
Writing library                : core 119 r2106 07efeb4
Encoding settings              : cabac=1 / ref=12 / deblock=1:-2:-1 / analyse=0x3:0x113 / me=umh / subme=9 / psy=1 / psy_rd=1.02:0.10 / mixed_ref=1 / me_range=32 / chroma_me=1 / trellis=2 / 8x8dct=1 / cqm=0 / deadzone=21,11 / fast_pskip=0 / chroma_qp_offset=-3 / threads=6 / sliced_threads=0 / nr=0 / decimate=0 / interlaced=0 / bluray_compat=0 / constrained_intra=0 / bframes=9 / b_pyramid=2 / b_adapt=2 / b_bias=0 / direct=3 / weightb=1 / open_gop=0 / weightp=2 / keyint=240 / keyint_min=23 / scenecut=40 / intra_refresh=0 / rc_lookahead=60 / rc=2pass / mbtree=1 / bitrate=5175 / ratetol=1.0 / qcomp=0.60 / qpmin=0 / qpmax=69 / qpstep=4 / cplxblur=20.0 / qblur=0.5 / ip_ratio=1.40 / aq=1:1.00
Language                       : English
Default                        : Yes
Forced                         : No

Audio #1
ID                             : 2
Format                         : AC-3
Format/Info                    : Audio Coding 3
Mode extension                 : CM (complete main)
Format settings, Endianness    : Big
Codec ID                       : A_AC3
Duration                       : 1h 42mn
Bit rate mode                  : Constant
Bit rate                       : 192 Kbps
Channel(s)                     : 2 channels
Channel positions              : Front: L R
Sampling rate                  : 48.0 KHz
Bit depth                      : 16 bits
Compression mode               : Lossy
Stream size                    : 141 MiB (3%)
Title                          : 2.0; 192 kbps; багатоголосий закадровий {Tretyakoff production}
Language                       : Ukrainian
Default                        : Yes
Forced                         : No

Audio #2
ID                             : 3
Format                         : AC-3
Format/Info                    : Audio Coding 3
Mode extension                 : CM (complete main)
Format settings, Endianness    : Big
Codec ID                       : A_AC3
Duration                       : 1h 42mn
Bit rate mode                  : Constant
Bit rate                       : 256 Kbps
Channel(s)                     : 2 channels
Channel positions              : Front: L R
Sampling rate                  : 48.0 KHz
Bit depth                      : 16 bits
Compression mode               : Lossy
Stream size                    : 187 MiB (4%)
Title                          : 2.0; 256 kbps; одноголосий закадровий {Ursulyak [BOOGud] | UAVoice}
Language                       : Ukrainian
Default                        : No
Forced                         : No

Audio #3
ID                             : 4
Format                         : AC-3
Format/Info                    : Audio Coding 3
Mode extension                 : CM (complete main)
Format settings, Endianness    : Big
Codec ID                       : A_AC3
Duration                       : 1h 42mn
Bit rate mode                  : Constant
Bit rate                       : 384 Kbps
Channel(s)                     : 6 channels
Channel positions              : Front: L C R, Side: L R, LFE
Sampling rate                  : 48.0 KHz
Bit depth                      : 16 bits
Compression mode               : Lossy
Stream size                    : 281 MiB (6%)
Title                          : 5.1; 384 kbps; original
Language                       : English
Default                        : No
Forced                         : No

Text #1
ID                             : 5
Format                         : UTF-8
Codec ID                       : S_TEXT/UTF8
Codec ID/Info                  : UTF-8 Plain Text
Title                          : full
Language                       : Ukrainian
Default                        : No
Forced                         : No

Text #2
ID                             : 6
Format                         : UTF-8
Codec ID                       : S_TEXT/UTF8
Codec ID/Info                  : UTF-8 Plain Text
Title                          : full
Language                       : English
Default                        : No
Forced                         : No

Світлини














Джерело: &
Подяка xslim, andic, MAKAPOHIK за запис звуку з ТБ, karvai0 за синхронізацію доріжки #1, BOOGud за доріжку №2 та StarAssassin96 за українські субтитри


 Трекер:    Зареєстрований   

Завантажити / скачати фільм українською



відео для новачків



 Зареєстрований:   2012-10-03 18:04
 Розмір:   4.3 GB 
 Оцінка фільму:   9.9/10 (Голосів: 27)
   
Інші релізи
   На межі / Man on a Ledge (2012) 1080p 2xUkr /Eng kvvdvd  4 / 0   13.93 GB   2016-10-30 09:56 
   На межі / Man on a Ledge (2012) 2xUkr | Sub Ukr/Eng patriot2305  1 / 0   1.46 GB   2012-10-05 11:53 
   На межі / Man on a Ledge (2012) AVC 2хUkr/Eng | Sub Ukr/Eng Gelios  3 / 0   2.25 GB   2012-10-03 16:56 
   На межі / Man on a Ledge (2012) 2xUkr/Eng | Sub Ukr/Eng karvai0  7 / 0   2.18 GB   2012-10-03 16:14 
   Людина на межі / На Межі / Man on a Ledge (2012) Ukr/Eng | Sub Ukr/Eng BOOGud  0 / 0   2.09 GB   2012-09-26 20:32 
olyx 
Відео Гуртом - підтримка та поширення
Відео Гуртом - підтримка та поширення


З нами з: 25.01.10
Востаннє: 05.10.16
Повідомлень: 231

2012-10-03 18:15  
В описі фігурує міліція, якої в США немає...
DеLight 
Відео Гуртом - фільмокрай
Відео Гуртом - фільмокрай


З нами з: 24.08.11
Востаннє: 17.11.16
Повідомлень: 664

2012-10-03 18:24  
olyx
Підкоректував, дякую!

kmr 
Поважний учасник


З нами з: 18.04.10
Востаннє: 06.12.16
Повідомлень: 150

2012-10-03 18:54  
як кіно? не занудне...?
DеLight 
Відео Гуртом - фільмокрай
Відео Гуртом - фільмокрай


З нами з: 24.08.11
Востаннє: 17.11.16
Повідомлень: 664

2012-10-03 19:08  
kmr
Фільм - легкий пригодницький трилер. Непоганий. Цікавий і тримає в напрузі.

АндрійСхідний 
Новенький


З нами з: 05.04.12
Востаннє: 06.12.16
Повідомлень: 23

2012-10-03 23:03  
А що значить в описі фраза
Цитата:
псевдо дубляж


там якість не дуже чи сам переклад такий-собі?

DеLight 
Відео Гуртом - фільмокрай
Відео Гуртом - фільмокрай


З нами з: 24.08.11
Востаннє: 17.11.16
Повідомлень: 664

2012-10-03 23:22  
АндрійСхідний
Це не якість звуку описує, а просто як в дубляжі - не чути оригінальної мови (англійської), тільки чиста українська. Тобто коли записують звук з ТБ, там зазвичай двоголосий чи багатоголосий закадровий, на мову оригіналу (яку теж чути) накладено переклад.

АндрійСхідний 
Новенький


З нами з: 05.04.12
Востаннє: 06.12.16
Повідомлень: 23

2012-10-03 23:28  
Delight`, дякую за роз'яснення!
DеLight 
Відео Гуртом - фільмокрай
Відео Гуртом - фільмокрай


З нами з: 24.08.11
Востаннє: 17.11.16
Повідомлень: 664

2012-10-03 23:31  
АндрійСхідний
Будь ласка! Wink (2)

Ваш часовий пояс: GMT + 2 Години

Нова тема   Відповісти