Завантажити та скачати торренти українською


Прометей / Prometheus (2012) 1080p-mini Ukr/Eng | Sub Ukr/Eng

Нові коментарі

Нова тема   Відповісти
Автор Повідомлення
petro777 
Новенький


З нами з: 19.05.12
Востаннє: 01.12.16
Повідомлень: 8

2012-10-01 17:25  
Прометей / Prometheus (2012) 1080p-mini Ukr/Eng | Sub Ukr/Eng

Прометей / Prometheus (2012) 1080p-mini Ukr/Eng | Sub Ukr/Eng


Жанр: фантастика, трилер, пригодницький
Країна: США, Великобританія



Кіностудія / кінокомпанія: Brandywine Productions, Dune Entertainment, Scott Free Productions
Режисер: Рідлі Скотт / Ridley Scott
Актори: Нумі Рапас / Noomi Rapace, Майкл Фассбендер / Michael Fassbender, Шарліз Терон / Charlize Theron, Ідріс Ельба / Idris Elba, Ґай Пірс / Guy Pearce, Лоґан Маршалл-Ґрін / Logan Marshall-Green, Шон Харріс / Sean Harris, Рейф Сполл / Rafe Spall, Емун Елліотт / Emun Elliott, Бенедикт Bонг / Benedict Wong, Кайт Дікі / Kate Dickie, Бренвелл Донаґхей / Branwell Donaghey, Володимир 'Фурдо' Фурдік / Vladimir 'Furdo' Furdik, Сі Сі Сміфф / C.C. Smiff, Шейн Стейн / Shane Steyn

Сюжет: Команда дослідників знаходить на Землі ключі до розкриття таємниці походження людства, що вказують їм у пошуках відповідей відправитися в захоплюючу космічну подорож до найтемніших куточків всесвіту. Там, в незвіданих світах, їм доводиться вступити в жорстоку битву за майбутнє людської раси.

Тривалість: 02:03:46
Якість:
Відео:
кодек:
розмір кадру: 1920x800
бітрейт: 4666 кб/с

Аудіо #1:
мова: українська
переклад: професійний дубльований | Blu-ray
кодек: 5.1
бітрейт: 448 кб/с

Аудіо #2:
мова: англійська
переклад: оригінал
кодек: 5.1
бітрейт: 448 кб/с

Джерело озвучення:
Творчий колектив компанії Postmodern

Субтитри:
мови: українська, англійська
тип: програмні (м'які)
формат: *.srt
MediaInfo
General
Unique ID : 243269192949561387578421171369891884106 (0xB703F13C3382DEAEB6D80CC878A06C4A)
Complete name : Prometheus (2012) 1080p.mkv
Format : Matroska
Format version : Version 2
File size : 4.81 GiB
Duration : 2h 3mn
Overall bit rate : 5 562 Kbps
Encoded date : UTC 2012-10-01 15:13:56
Writing application : mkvmerge v5.5.0 ('Healer') built on Apr 24 2012 23:47:03
Writing library : libebml v1.2.3 + libmatroska v1.3.0

Video
ID : 1
Format : AVC
Format/Info : Advanced Video Codec
Format profile : [email protected]
Format settings, CABAC : Yes
Format settings, ReFrames : 4 frames
Codec ID : V_MPEG4/ISO/AVC
Duration : 2h 3mn
Bit rate : 4 666 Kbps
Width : 1 920 pixels
Height : 800 pixels
Display aspect ratio : 2.40:1
Frame rate : 23.976 fps
Color space : YUV
Chroma subsampling : 4:2:0
Bit depth : 8 bits
Scan type : Progressive
Bits/(Pixel*Frame) : 0.127
Stream size : 3.94 GiB (82%)
Writing library : core 128 r2216 198a7ea
Encoding settings : cabac=1 / ref=3 / deblock=1:0:0 / analyse=0x3:0x133 / me=hex / subme=7 / psy=1 / psy_rd=1.00:0.00 / mixed_ref=1 / me_range=16 / chroma_me=1 / trellis=1 / 8x8dct=1 / cqm=0 / deadzone=21,11 / fast_pskip=1 / chroma_qp_offset=-2 / threads=12 / lookahead_threads=2 / sliced_threads=0 / nr=0 / decimate=1 / interlaced=0 / bluray_compat=0 / constrained_intra=0 / bframes=3 / b_pyramid=2 / b_adapt=1 / b_bias=0 / direct=1 / weightb=1 / open_gop=0 / weightp=2 / keyint=240 / keyint_min=23 / scenecut=40 / intra_refresh=0 / rc_lookahead=40 / rc=2pass / mbtree=1 / bitrate=4666 / ratetol=1.0 / qcomp=0.60 / qpmin=0 / qpmax=69 / qpstep=4 / cplxblur=20.0 / qblur=0.5 / ip_ratio=1.40 / aq=1:1.00
Language : English
Default : Yes
Forced : No

Audio #1
ID : 2
Format : AC-3
Format/Info : Audio Coding 3
Mode extension : CM (complete main)
Codec ID : A_AC3
Duration : 2h 3mn
Bit rate mode : Constant
Bit rate : 448 Kbps
Channel(s) : 6 channels
Channel positions : Front: L C R, Side: L R, LFE
Sampling rate : 48.0 KHz
Bit depth : 16 bits
Compression mode : Lossy
Stream size : 397 MiB (8%)
Language : Ukrainian
Default : Yes
Forced : Yes

Audio #2
ID : 3
Format : AC-3
Format/Info : Audio Coding 3
Mode extension : CM (complete main)
Codec ID : A_AC3
Duration : 2h 3mn
Bit rate mode : Constant
Bit rate : 448 Kbps
Channel(s) : 6 channels
Channel positions : Front: L C R, Side: L R, LFE
Sampling rate : 48.0 KHz
Bit depth : 16 bits
Compression mode : Lossy
Stream size : 397 MiB (8%)
Language : English
Default : No
Forced : No

Text #1
ID : 4
Format : UTF-8
Codec ID : S_TEXT/UTF8
Codec ID/Info : UTF-8 Plain Text
Language : Ukrainian
Default : No
Forced : No

Text #2
ID : 5
Format : UTF-8
Codec ID : S_TEXT/UTF8
Codec ID/Info : UTF-8 Plain Text
Language : English
Default : No
Forced : No
Скріншоти








Джерело:


 Трекер:    Зареєстрований   

Завантажити / скачати фільм українською



відео для новачків



 Зареєстрований:   2012-10-01 17:25
 Розмір:   4.81 GB 
 Оцінка фільму:   8.7/10 (Голосів: 24)
   
Інші релізи
   Прометей / Prometheus (2012) 1080p 3D [Half OverUnder] 2хUkr/Eng | Sub 2xUkr/Eng igor911  2 / 0   9.64 GB   2015-10-16 23:21 
   Прометей / Prometheus (2012) AVC | [Tablet PC, 720х306] Drool  0 / 0   976 MB   2013-05-04 19:48 
   Прометей / Prometheus (2012) Ukr/Eng | Sub Ukr/Eng karvai0  10 / 2   2.57 GB   2012-11-22 15:50 
   Прометей / Prometheus (2012) Ukr | Sub Ukr/Eng patriot2305  13 / 0   1.46 GB   2012-11-22 15:49 
   Прометей / Prometheus (2012) AVC Ukr/Eng | Sub Ukr/Eng AngryBirdsUA  5 / 0   2.24 GB   2012-11-22 15:47 
   Прометей / Prometheus (2012) 1080p (60fps) Ukr/Eng | Sub Ukr/Eng grizz  3 / 0   17.26 GB   2012-10-12 12:48 
   Прометей / Prometheus (2012) Blu-ray 1080p Multi | Sub Multi 11FrYkT  1 / 0   44.21 GB   2012-09-30 10:37 
   Прометей / Prometheus (2012) 1080p Ukr/Eng | Sub Ukr/Eng 11FrYkT  8 / 0   9.43 GB   2012-09-30 08:48 
   Прометей / Prometheus (2012) Remux 1080p Ukr/Eng | Sub Ukr/Eng 11FrYkT  2 / 0   29.58 GB   2012-09-29 17:24 
   Прометей / Prometheus (2012) 720p Ukr/Eng | Sub Ukr/Eng 11FrYkT  3 / 0   6.21 GB   2012-09-28 17:56 
   Прометей / Prometheus (2012) DVD9 Eng/Rus/Ukr | Ліцензія vitalicio  1 / 0   7.01 GB   2012-09-23 11:29 
[email protected] 
Новенький


З нами з: 18.06.11
Востаннє: 01.03.14
Повідомлень: 12

2012-10-27 10:56  
Виправіть опис сюжету =)
oleg.plavkov 
Відео Гуртом - фільмокрай
Відео Гуртом - фільмокрай


З нами з: 04.01.12
Востаннє: 26.11.16
Повідомлень: 304

2012-10-29 12:16  
Від скількох років можна дивитися????
The_Marlboro 
Відео Гуртом - субтитрування
Відео Гуртом - субтитрування


З нами з: 23.05.10
Востаннє: 02.12.16
Повідомлень: 2854

2012-10-29 12:22  
oleg.plavkov написано:
Від скількох років можна дивитися????

18+

Hako 
Частий відвідувач


З нами з: 01.02.12
Востаннє: 10.01.16
Повідомлень: 37

2013-02-23 23:05  
Цитата:
Сюжет: Команда дослідників знаходить на Землі ключі до розкриття таємниці походження людства, що вказують їм у пошуках відповідей відправитися в захоплюючу космічну подорож до найтемніших куточків всесвіту. Там, в незвіданих світах, їм доводиться вступити в жорстоку битву за майбутнє людської раси.

Заодно ми дізнаємося звідки взялися Чужі.
Дякую за гарний фільм. Хочу продовження.

AndrewFG 
VIP


З нами з: 31.10.10
Востаннє: 04.12.16
Повідомлень: 267

2013-06-13 19:12  
Як фільм взагалі? Закороткий опис
Leshchyshyn 
VIP


З нами з: 20.07.09
Востаннє: 02.12.16
Повідомлень: 470

2013-06-14 00:16  
AndrewFG написано:
Як фільм взагалі? Закороткий опис

Якщо подобається тематика "Чужих" - то дивитись слід однозначно!!! Проте є деякі неточності і то дууже відмінні від оригіналу, але що поробиш якщо це окремий проект, та все ж фільм і задум дуже цікаві =) Рекомендую до перегляду!

Maters 
VIP


З нами з: 27.03.12
Востаннє: 04.12.16
Повідомлень: 1157

2014-11-23 10:19  
Ну, тут не так багато про чужих йдеться. Там лише під кінець розумієш що до чого, а весь фільм - це дослідження і пошуки відповідей.
Ну, коротше, дивитись було цікаво. Не суперовий, але на раз підійте, враховуючи те, що я не люблю тематики космосу))

usibat2015 
Свій


З нами з: 20.10.15
Востаннє: 02.12.16
Повідомлень: 53

2015-12-09 11:24  
16+ він не дуже страшний а можете зробити реліз з бітрейном 4000кілобіт щоб на DVD вліз)))
aVa_W 
Новенький


З нами з: 21.04.16
Востаннє: 28.11.16
Повідомлень: 7

2016-08-11 20:55  
[email protected]
а що не так з описом?

Ваш часовий пояс: GMT + 2 Години

Нова тема   Відповісти