Завантажити та скачати торренти українською


Ціна страху / The Sum of All Fears (2002) 720p Ukr/Eng | Sub Eng

Нові коментарі

Нова тема   Відповісти
Автор Повідомлення
hellforces 
VIP


З нами з: 25.06.08
Востаннє: 11.11.16
Повідомлень: 1556

2012-09-30 15:25  
Ціна страху / The Sum of All Fears (2002) 720p Ukr/Eng | Sub Eng

Ціна страху / The Sum of All Fears (2002) 720p Ukr/Eng | Sub Eng


Жанр: трилер, екшин, драма
Країна: США, Німеччина



Режисер: Філ Олден Робінсон
Актори: Бен Аффлек, Морган Фріман, Джеймс Кромвелл, Кен Дженкінс, Лів Шрайбер, Брюс МакГілл та ін.

Сюжет:
Коли президент Росії раптово помирає, його пост займає людина, про яку громадськості відомо досить мало. Саме цей факт збільшує напружену обстановку в країні. Глава ЦРУ Білл Кебот приймає на роботу молодого аналітика Джека Райана, фахівця з Росії, щоб одержувати достовірну інформацію з перших рук.
Незабаром трапляється жахливе: столиця Чечні обзаводиться ядерною бомбою. Американці швидко починають звинувачувати у всьому росіян. Також вони з недовірою ставляться до відомостей Райана, який з ризиком для життя проводить свої розслідування. А він має рацію.
Терористи провокують початок війни між двома націями, перебуваючи позаду сцени. Коли вони успішно підривають бомбу поруч із Балтімором під час Золотого Кубка, світ вже перебуває на межі війни. Але... Якщо Райан вчасно дістане необхідні докази, то цей потік лих припиниться.


Тривалість: 02:03:41
Якість: 720р
Відео:
кодек:
розмір кадру: 1280x536
бітрейт: ~3445 кб/с

Аудіо # 1:
мова: українська
переклад: багатоголосий закадровий
кодек: 2.0
бітрейт: ~192 кб/с

Аудіо # 2:
мова: англійська
переклад: оригінал
кодек: 5.1
бітрейт: ~448 кб/с

Джерело озвучення:
Ціна страху / The Sum of All Fears (2002) 720p Ukr/Eng | Sub Eng

Субтитри:
мова: англійська
тип: вбудовані (м'які)
формат: *.srt

MediaInfo
General
Complete name : D:\The Sum of All Fears (2002) [Ukr, Eng] 720p [Hurtom].mkv
Format : Matroska
File size : 3.53 GiB
Duration : 2h 3mn
Overall bit rate : 4 085 Kbps
Encoded date : UTC 2012-09-30 13:03:46
Writing application : mkvmerge v5.8.0 ('No Sleep / Pillow') built on Sep 2 2012 15:37:04
Writing library : libebml v1.2.3 + libmatroska v1.3.0

Video
ID : 1
Format : AVC
Format/Info : Advanced Video Codec
Format profile : [email protected]
Format settings, CABAC : Yes
Format settings, ReFrames : 6 frames
Muxing mode : Container [email protected]
Codec ID : V_MPEG4/ISO/AVC
Duration : 2h 3mn
Bit rate : 3 445 Kbps
Width : 1 280 pixels
Height : 536 pixels
Display aspect ratio : 2.35:1
Frame rate : 23.976 fps
Color space : YUV
Chroma subsampling : 4:2:0
Bit depth : 8 bits
Scan type : Progressive
Bits/(Pixel*Frame) : 0.209
Stream size : 2.91 GiB (82%)
Title : Sum.of.All.Fears.2002..720p.by.Burn
Writing library : core 116 r2074 2641b9e
Encoding settings : cabac=1 / ref=6 / deblock=0:0:0 / analyse=0x3:0 / me=umh / subme=9 / psy=1 / psy_rd=1.00:0.10 / mixed_ref=1 / me_range=32 / chroma_me=1 / trellis=2 / 8x8dct=1 / cqm=0 / deadzone=21,11 / fast_pskip=1 / chroma_qp_offset=-3 / threads=6 / sliced_threads=0 / nr=0 / decimate=1 / interlaced=0 / bluray_compat=0 / constrained_intra=0 / bframes=8 / b_pyramid=2 / b_adapt=2 / b_bias=0 / direct=3 / weightb=1 / open_gop=0 / weightp=2 / keyint=230 / keyint_min=23 / scenecut=40 / intra_refresh=0 / rc=2pass / mbtree=0 / bitrate=3445 / ratetol=1.0 / qcomp=1.00 / qpmin=0 / qpmax=69 / qpstep=4 / cplxblur=20.0 / qblur=0.5 / ip_ratio=1.40 / pb_ratio=1.30 / aq=2:1.10

Audio #1
ID : 2
Format : AC-3
Format/Info : Audio Coding 3
Mode extension : CM (complete main)
Codec ID : A_AC3
Duration : 2h 3mn
Bit rate mode : Constant
Bit rate : 192 Kbps
Channel(s) : 2 channels
Channel positions : Front: L R
Sampling rate : 48.0 KHz
Stream size : 170 MiB (5%)
Language : Ukrainian

Audio #2
ID : 3
Format : AC-3
Format/Info : Audio Coding 3
Mode extension : CM (complete main)
Codec ID : A_AC3
Duration : 2h 3mn
Bit rate mode : Constant
Bit rate : 448 Kbps
Channel(s) : 6 channels
Channel positions : Front: L C R, Side: L R, LFE
Sampling rate : 48.0 KHz
Stream size : 396 MiB (11%)

Text
ID : 4
Format : UTF-8
Codec ID : S_TEXT/UTF8
Codec ID/Info : UTF-8 Plain Text

Menu
00:00:00.000 : en:00:00:00.000
00:04:50.499 : en:00:04:50.499
00:13:01.072 : en:00:13:01.072
00:24:07.988 : en:00:24:07.988
00:30:08.056 : en:00:30:08.056
00:36:34.901 : en:00:36:34.901
00:48:09.845 : en:00:48:09.845
01:01:12.627 : en:01:01:12.627
01:06:24.480 : en:01:06:24.480
01:13:21.397 : en:01:13:21.397
01:20:17.396 : en:01:20:17.396
01:26:10.624 : en:01:26:10.624
01:33:58.842 : en:01:33:58.842
01:42:08.873 : en:01:42:08.873
01:47:29.485 : en:01:47:29.485
01:51:46.325 : en:01:51:46.325
01:57:22.661 : en:01:57:22.661
Скріншоти:













Наданий сирий звук: OlegCena
Зведення звуку: Breniak
Постер від: hellforces


Срібний реліз (на рейтинг впливає 50% завантаженого)
 Трекер:    Зареєстрований   

Завантажити / скачати фільм українською



відео для новачків



 Зареєстрований:   2012-09-30 15:25
 Розмір:   3.53 GB 
 Оцінка фільму:   9.8/10 (Голосів: 5)
   
Інші релізи
   Ціна страху / The Sum of All Fears (2002) Ukr/Eng Breniak  2 / 0   2.35 GB   2012-08-30 10:44 
hellforces 
VIP


З нами з: 25.06.08
Востаннє: 11.11.16
Повідомлень: 1556

2012-10-01 16:56  
класне кіно 9\10
особливо сподобалося те, що паказували на карті Черкаську обл. я там проживаю і ще те, що у фільмі розмовляли українською мовою

taras1994 
Почесний оцифрувальник літератури


З нами з: 23.03.12
Востаннє: 30.11.16
Повідомлень: 5096

2012-10-01 18:45  
hellforces написано:
особливо сподобалося те, що паказували на карті Черкаську обл. я там проживаю і ще те, що у фільмі розмовляли українською мовою

має бути класним.

taras1994 
Почесний оцифрувальник літератури


З нами з: 23.03.12
Востаннє: 30.11.16
Повідомлень: 5096

2012-10-02 21:45  
думка про фільм
Що ж почнемо з того що техніка, дев`яностих, це комп`ютери, машини, мобільні телефони, ну воно й зрозуміло знімали в 2000-них. Але це аж ніяк не впливає на враження від фільму. А фільм сподобався, заплутана історія з ядерною бомбою 1973 року випуску. Частину якої знайшли в ізраїлі, доробили в Черкасах а підірвали в Балтіморі(американському аналогові українського Чорнобиля після завершення фільму). Далі події розгорталися дуже напружено, бо через провокацію могла початися третя світова війна - ядерна війна! Її зупинив один аналітик, який повідом про походження плутонію в бомбі, що вибухнула американського президента.

Фільм закликає до відмови від ядерної зброї, Україна вже відмовилася, і даремно я вважаю.

Додано через 2 хвилини:

hellforces написано:
що у фільмі розмовляли українською мовою

українські військові, які не застрелили грабіжника, і в яких потім чоботи забрали. Не рішучі хлопці.

Ваш часовий пояс: GMT + 2 Години

Нова тема   Відповісти