Завантажити та скачати торренти українською


Чужий / Alien (1979) 720p-mini

Нові коментарі

Нова тема   Відповісти
Автор Повідомлення
oleh_oleh 
Свій


З нами з: 05.05.11
Востаннє: 06.12.16
Повідомлень: 67

2012-09-28 13:43  
Чужий / Alien (1979) 720p-mini

Чужий / Alien (1979) 720p-mini


Жанр: пригодницький, бойовик, жахи, фантастика, трилер
Країна: Велика Британія,США



Кіностудія / кінокомпанія: Twentieth Century-Fox Productions, Brandywine Productions
Режисер: Рідлі Скотт (Ridley Scott)
Актори: Том Скеррітт (Tom Skerritt), Сіґурні Вівер (Sigourney Weaver), Вероніка Картрайт (Veronica Cartwright), Гаррі Дін Стентон (Harry Dean Stanton), Джон Гарт (John Hurt), Ен Гольм (Ian Holm) та інші.

Сюжет:
У далекому майбутньому вантажний космічний корабель, який повертається на Землю, перехоплює слабкий сигнал SOS з невідомої планети. Екіпаж вирішує виконати посадку і розібратися, що до чого. На планеті астронавти скрізь виявляють предмети, схожі на гігантські кокони або личинки.
На жаль, вони навіть не здогадуються, що в цих коконах чекають свого часу огидні безжальні тварюки, сенс існування яких зведено до винищення всього живого...


Тривалість: 01:55:03 (Режисерська версія)
Якість:
Відео:
кодек:
розмір кадру: 1280 х 544
бітрейт: 2130 кб/с

Аудіо _oles:
мова: українська
переклад: двоголосий закадровий
кодек: 5.1
бітрейт: 384 кб/с

Джерело озвучення:


MediaInfo
Format : Matroska
File size : 2.04 GiB
Duration : 1h 55mn
Overall bit rate : 2 532 Kbps
Encoded date : UTC 2012-09-28 09:31:48
Writing application : mkvmerge v4.2.0 ('No Talking') збірка від Jul 28 2010 18:38:23
Writing library : libebml v1.0.0 + libmatroska v1.0.0

Video
ID : 1
Format : AVC
Format/Info : Advanced Video Codec
Format profile : [email protected]
Format settings, CABAC : Yes
Format settings, ReFrames : 12 frames
Format settings, GOP : M=1, N=20
Codec ID : V_MPEG4/ISO/AVC
Duration : 1h 55mn
Bit rate : 2 130 Kbps
Width : 1 280 pixels
Height : 544 pixels
Display aspect ratio : 2.35:1
Frame rate : 23.976 fps
Color space : YUV
Chroma subsampling : 4:2:0
Bit depth : 8 bits
Scan type : Progressive
Bits/(Pixel*Frame) : 0.128
Stream size : 1.69 GiB (83%)
Writing library : core 68 r1183M f21daff
Encoding settings : cabac=1 / ref=12 / deblock=1:0:0 / analyse=0x3:0x133 / me=umh / subme=9 / psy_rd=1.0:0.0 / mixed_ref=1 / me_range=32 / chroma_me=1 / trellis=2 / 8x8dct=1 / cqm=0 / deadzone=21,11 / chroma_qp_offset=-2 / threads=2 / nr=0 / decimate=0 / mbaff=0 / bframes=8 / b_pyramid=1 / b_adapt=2 / b_bias=0 / direct=3 / wpredb=1 / keyint=250 / keyint_min=25 / scenecut=40 / rc=2pass / bitrate=2130 / ratetol=1.0 / qcomp=0.60 / qpmin=10 / qpmax=51 / qpstep=4 / cplxblur=20.0 / qblur=0.5 / ip_ratio=1.40 / pb_ratio=1.30 / aq=1:1.00
Language : English

Audio
ID : 2
Format : AC-3
Format/Info : Audio Coding 3
Mode extension : CM (complete main)
Codec ID : A_AC3
Duration : 1h 55mn
Bit rate mode : Constant
Bit rate : 384 Kbps
Channel(s) : 6 channels
Channel positions : Front: L C R, Side: L R, LFE
Sampling rate : 48.0 KHz
Bit depth : 16 bits
Compression mode : Lossy
Delay relative to video : 2ms
Stream size : 316 MiB (15%)
Language : Ukrainian

Скріншоти




Джерело:
Особиста оцінка: 10 - без зайвих вагань рекомендую всім!


Срібний реліз (на рейтинг впливає 50% завантаженого)
 Трекер:    Зареєстрований   

Завантажити / скачати фільм українською



відео для новачків



 Зареєстрований:   2012-09-28 13:43
 Розмір:   2.04 GB 
 Оцінка фільму:   9.6/10 (Голосів: 26)
   
Інші релізи
qwasasqw 
Свій


З нами з: 01.01.11
Востаннє: 06.12.16
Повідомлень: 98

2012-09-28 13:55  
дякую)а друга буде в бд?
ХОРОБРЕ СЕРЦЕ 
Частий відвідувач


З нами з: 24.06.11
Востаннє: 08.11.16
Повідомлень: 49

2012-09-28 23:48  
Було б круто усі зробити частини + режисерські версії=)))
oleh_oleh 
Свій


З нами з: 05.05.11
Востаннє: 06.12.16
Повідомлень: 67

2012-09-29 02:27  
ХОРОБРЕ СЕРЦЕ

Цитата:
Було б круто усі зробити частини + режисерські версії=)))


тут розширені версії в - http://toloka.to/t12168

ХОРОБРЕ СЕРЦЕ 
Частий відвідувач


З нами з: 24.06.11
Востаннє: 08.11.16
Повідомлень: 49

2012-09-29 10:41  
Це я знаю, але б хотілось на 720р або 1080р, з таким розміром що можна було записати на диск двд9=)
migelius 
Свій


З нами з: 29.02.08
Востаннє: 27.11.16
Повідомлень: 97

2012-09-29 17:43  
А я i не знав що фiльм був знятий в 1979 роцi. Капець 8-O
virtus8hur 
Попереджень: 1
Попереджень: 1 


З нами з: 06.02.10
Востаннє: 07.12.16
Повідомлень: 2964

2013-02-26 16:51  
Фільм тупий!
igor911 
Відео Гуртом
Відео Гуртом


З нами з: 18.01.08
Востаннє: 07.12.16
Повідомлень: 5176

2013-04-12 00:28  
simalight 
Частий відвідувач


З нами з: 16.11.13
Востаннє: 05.12.16
Повідомлень: 46

2015-01-31 22:04  
цікавий фільм, захоплюючий) не сказав би, що це "жахи", але, напевно, як на 1979 рік знято - то непогано) здається, оскара ж ще навіть отримали за спецефекти)

моя оцінка - 8/10

Ваш часовий пояс: GMT + 2 Години

Нова тема   Відповісти