Завантажити та скачати торренти українською


Людина-Павук 3: Ворог у Тіні / Spider-Man 3 (2007) 720p-mini

Нові коментарі

Нова тема   Відповісти
Останній раз роздавалося PredatorAlpha2 (2016-12-05)
Автор Повідомлення
Drool 
VIP


З нами з: 17.04.10
Востаннє: 07.12.16
Повідомлень: 1264

2012-09-26 09:09  
Людина-Павук 3: Ворог у Тіні / Spider-Man 3 (2007) 720p-mini

Жанр: фантастика, пригодницький, бойовик, трилер
Країна: США


Рейтинг PG-13 - Дітям до 13 років перегляд не бажаний

Кіностудія / кінокомпанія: Columbia Pictures, Columbia Pictures Industries Inc., Laura Ziskin Productions, Marvel Studios Inc.
Режисер: Сем Реймі
Актори: Тоні Бєссон, Брайс Даллас Ховард, Тобі Магуайр, Кірстен Данст, Джеймс Франко, Томас Хейден Черч, Тофер Грейс

Сюжет:
Минуло п'ять років з тих пір, як Пітер усвідомив, що «з Великою силою приходить Велика відповідальність!» і три роки з тих пір, як він відмовився бути борцем за справедливість. Але зараз здається, Пітер прекрасно навчився жити декількома життями. Він добре вчиться, Нью-Йорк визнав його героєм, стосунки з Мері Джейн міцні. Пітер навіть має намір освідчитися їй ... Але на жаль, його кращий друг Гарі Озборн як і раніше вважає, що саме Людина-павук несе відповідальність за смерть його батька. Гарі має намір помститися йому в образі Нового Гобліна. У той же самий час на кримінальній сцені Нью-Йорка з'являється інший могутній суперлиходій, відомий як Пісочна Людина. А коли Людина-павук надіває таємничий чорний костюм, його темна, більш мстива сторона повністю поглинає його,і Пітерові ледве вдається врятуватися. Та головна битва всеж таки попереду...


Тривалість: 02:19:11
Якість: 720p-mini
Відео:
кодек:
розмір кадру: 1280x528
бітрейт: 2222 кб/с

Аудіо:
мова: українська
переклад: професійний дубльований
кодек: 5.1
бітрейт: 384 кб/с

Джерело озвучення:
(звукову доріжку взято з релізу Tenax555)
MediaInfo
General
Unique ID : 47324493402787446550147949049641333381 (0x239A5DAB470F6FE56923DA7373527285)
Complete name : /mnt/disk/Video/Spider.Man.3.2007.Ukr.Dub..720p.mkv
Format : Matroska
File size : 2.53 GiB
Duration : 2h 19mn
Overall bit rate : 2 607 Kbps
Movie name : Людина-Павук 3: Ворог у Тіні / Spider-Man 3 (2007) 720p | video by DXVA-MXMG
Encoded date : UTC 2012-09-26 06:20:20
Writing application : mkvmerge v4.8.0 ('I Got The...') сборка от Aug 22 2011 13:16:28
Writing library : libebml v1.2.0 + libmatroska v1.1.0

Video
ID : 1
Format : AVC
Format/Info : Advanced Video Codec
Format profile : [email protected]
Format settings, CABAC : Yes
Format settings, ReFrames : 5 frames
Codec ID : V_MPEG4/ISO/AVC
Duration : 2h 19mn
Bit rate : 2 222 Kbps
Width : 1 280 pixels
Height : 528 pixels
Display aspect ratio : 2.40:1
Frame rate : 23.976 fps
Color space : YUV
Chroma subsampling : 4:2:0
Bit depth : 8 bits
Scan type : Progressive
Bits/(Pixel*Frame) : 0.137
Stream size : 2.11 GiB (83%)
Title : Людина-Павук 3: Ворог у Тіні / Spider-Man 3 (2007) 720p
Writing library : core 120 r2120 0c7dab9
Encoding settings : cabac=1 / ref=5 / deblock=1:-1:-1 / analyse=0x3:0x113 / me=umh / subme=7 / psy=1 / psy_rd=1.00:0.00 / mixed_ref=1 / me_range=16 / chroma_me=1 / trellis=2 / 8x8dct=1 / cqm=0 / deadzone=21,11 / fast_pskip=1 / chroma_qp_offset=-2 / threads=6 / sliced_threads=0 / nr=0 / decimate=1 / interlaced=0 / bluray_compat=0 / constrained_intra=0 / bframes=3 / b_pyramid=2 / b_adapt=2 / b_bias=0 / direct=3 / weightb=1 / open_gop=0 / weightp=2 / keyint=250 / keyint_min=23 / scenecut=40 / intra_refresh=0 / rc_lookahead=40 / rc=2pass / mbtree=1 / bitrate=2222 / ratetol=1.0 / qcomp=0.60 / qpmin=10 / qpmax=51 / qpstep=4 / cplxblur=20.0 / qblur=0.5 / vbv_maxrate=50000 / vbv_bufsize=50000 / nal_hrd=none / ip_ratio=1.40 / aq=1:1.00

Audio
ID : 2
Format : AC-3
Format/Info : Audio Coding 3
Mode extension : CM (complete main)
Codec ID : A_AC3
Duration : 2h 19mn
Bit rate mode : Constant
Bit rate : 384 Kbps
Channel(s) : 6 channels
Channel positions : Front: L C R, Side: L R, LFE
Sampling rate : 48.0 KHz
Bit depth : 16 bits
Compression mode : Lossy
Stream size : 382 MiB (15%)
Title : Українська (дубльована)
Language : Ukrainian
Скріншоти



















Джерело: відеоряд взято з іноземного ріпу RG DXVA-MXMG
Особиста оцінка: 8 - мені сподобалося


 Трекер:    Зареєстрований   

Завантажити / скачати фільм українською



відео для новачків



 Зареєстрований:   2012-09-26 09:09
 Розмір:   2.53 GB 
 Оцінка фільму:   9.3/10 (Голосів: 24)
   
[email protected] 
Новенький


З нами з: 25.05.15
Востаннє: 04.12.16
Повідомлень: 2

2016-05-07 20:18  
Дайте швидкості!)
Ваш часовий пояс: GMT + 2 Години

Нова тема   Відповісти