Завантажити та скачати торренти українською


Піджак / The Jacket (2005) AVC Ukr/Eng | Sub Eng

Нові коментарі

Нова тема   Відповісти
Автор Повідомлення
DеLight 
Відео Гуртом - фільмокрай
Відео Гуртом - фільмокрай


З нами з: 24.08.11
Востаннє: 17.11.16
Повідомлень: 664

2012-09-23 13:41  
Піджак / The Jacket (2005) AVC Ukr/Eng | Sub Eng

Піджак / The Jacket (2005) AVC Ukr/Eng | Sub Eng

«I was 27 years old the first time I died.»


Альтернативні обкладинки










Жанр: драма, фантастика, науково-фантастичний
Країна: США, Німеччина



рейтинг MPAA: R - Особам до 17 років обов'язкова присутність дорослого


Кіностудія / кінокомпанія: 2929 Productions, Mandalay Pictures, Rising Star, Section Eight Ltd., VIP 2 Medienfonds, VIP 3 Medienfonds, Warner Independent Pictures



Джон Мейбері / John Maybury

Едріан Броуді / Adrien Brody, Кіра Найтлі / Keira Knightley, Кріс Крістофферсон / Kris Kristofferson, Дженніфер Джейсон Лі / Jennifer Jason Leigh, Келлі Лінч / Kelly Lynch, Бред Ренфро / Brad Renfro, Деніел Крейг / Daniel Craig, Стівен Макінтош / Steven Mackintosh, Брендон Койл / Brendan Coyle, Маккензі Філіпс / Mackenzie Phillips, Лаура Марано / Laura Marano, Джейсон Льюіс / Jason Lewis, Річард Діллейн / Richard Dillane, Джона Лотан / Jonah Lotan, Енджел Калбі / Angel Coulby

Ветеран війни в Перській затоці, Джек Старкс, поправляється після поранення в голову. Він повертається в рідний штат Вермонт, але поранення дає про себе знати нападами амнезії. Коли Старкса звинувачують у вбивстві поліцейського, його направляють на психіатричну експертизу.

Доктор Беккер використовує експериментальні методи лікування, вводячи Старксу новітні препарати. Після ін'єкцій на Старкса надягають гамівну сорочку і поміщають у підвал. У наркотичному сп'янінні думки Старкса спрямовуються в майбутнє, де він зустрічає Джекі і дізнається, що йому залишилося жити 4 дні. Разом з Джекі він шукає можливість втекти від долі.

Цікаві факти
» Сцени ридань Едріана Броуді у висувному ящику знімалися з максимально можливою вірогідністю. У перервах між дублями актор просив залишати його замкненим, щоб краще відчути відчай героя.

» Щоб переконливіше виглядати в ролі ветерана війни, Едріан Броуді сидів на протеїновій дієті під час зйомок фільму.

» На роль головного героя в різний час запрошували Марка Уолберга і Коліна Фаррелла.

» Початок зйомок цього фільму - 19 січня 2004 року. Зйомки відбувалися в канадських містах Монреаль і Ормстаун, а також у шотландських містах Глазго і в передмісті Единбурга Дечмонді в госпіталі «Bangour Village».

» Спочатку любовна сцена між героями фільму була довшою, але на попередніх показах, глядачі не схвалили її, і її довелося скоротити.



Тривалість: 01:42:54
Якість: AVC [джерело: Blu-ray Disc (custom) 1080p]

Відео:
кодек:
розмір кадру: 1024 x 424
бітрейт: 2 269 кб/с

Аудіо #1:
мова: українська
переклад: двоголосий закадровий
кодек: 5.1
бітрейт: 384 кб/с

Джерело озвучення:

Переклад виконано і озвучено студією "Старий Майстер"

Аудіо #2:
мова: англійська
переклад: оригінал
кодек: 5.1
бітрейт: 384 кб/с

Субтитри:
мова: англійська
тип: програмні (м'які)
формат: *.srt


MediaInfo

Код:
General
Unique ID                      : 199669644859209463357578999519824941067 (0x9636F98C9EE6608E8DD6C09EDB1D900B)
Complete name                  : D:\Torrents\The Jacket (2005) AVC [Ukr, Eng] [Hurtom & RuTracker].mkv
Format                         : Matroska
Format version                 : Version 2
File size                      : 2.18 GiB
Duration                       : 1h 42mn
Overall bit rate               : 3 038 Kbps
Movie name                     : The Jacket (2005) AVC [Ukr, Eng] [Hurtom & RuTracker] by Delight
Encoded date                   : UTC 2012-09-23 09:16:22
Writing application            : mkvmerge v5.8.0 ('No Sleep / Pillow') built on Sep  2 2012 15:37:04
Writing library                : libebml v1.2.3 + libmatroska v1.3.0

Video
ID                             : 1
Format                         : AVC
Format/Info                    : Advanced Video Codec
Format profile                 : [email protected]
Format settings, CABAC         : Yes
Format settings, ReFrames      : 8 frames
Codec ID                       : V_MPEG4/ISO/AVC
Duration                       : 1h 42mn
Bit rate                       : 2 269 Kbps
Width                          : 1 024 pixels
Height                         : 424 pixels
Display aspect ratio           : 2.40:1
Frame rate mode                : Constant
Frame rate                     : 23.976 fps
Color space                    : YUV
Chroma subsampling             : 4:2:0
Bit depth                      : 8 bits
Scan type                      : Progressive
Bits/(Pixel*Frame)             : 0.218
Stream size                    : 1.59 GiB (73%)
Title                          : The Jacket (2005) AVC
Writing library                : core 116 r2074 2641b9e
Encoding settings              : cabac=1 / ref=8 / deblock=1:-2:-1 / analyse=0x3:0x113 / me=tesa / subme=10 / psy=1 / psy_rd=1.00:0.40 / mixed_ref=1 / me_range=32 / chroma_me=1 / trellis=2 / 8x8dct=1 / cqm=0 / deadzone=21,11 / fast_pskip=0 / chroma_qp_offset=-4 / threads=6 / sliced_threads=0 / nr=0 / decimate=0 / interlaced=0 / bluray_compat=0 / constrained_intra=0 / bframes=10 / b_pyramid=2 / b_adapt=2 / b_bias=0 / direct=3 / weightb=1 / open_gop=0 / weightp=2 / keyint=250 / keyint_min=23 / scenecut=40 / intra_refresh=0 / rc_lookahead=60 / rc=2pass / mbtree=1 / bitrate=2269 / ratetol=1.0 / qcomp=0.75 / qpmin=0 / qpmax=69 / qpstep=4 / cplxblur=20.0 / qblur=0.5 / vbv_maxrate=50000 / vbv_bufsize=50000 / nal_hrd=none / ip_ratio=1.40 / aq=1:0.90
Language                       : English
Default                        : Yes
Forced                         : No

Audio #1
ID                             : 2
Format                         : AC-3
Format/Info                    : Audio Coding 3
Mode extension                 : CM (complete main)
Format settings, Endianness    : Big
Codec ID                       : A_AC3
Duration                       : 1h 42mn
Bit rate mode                  : Constant
Bit rate                       : 384 Kbps
Channel(s)                     : 6 channels
Channel positions              : Front: L C R, Side: L R, LFE
Sampling rate                  : 48.0 KHz
Bit depth                      : 16 bits
Compression mode               : Lossy
Delay relative to video        : 1s 324ms
Stream size                    : 283 MiB (13%)
Title                          : 5.1; 384 kbps; двоголосий закадровий {студія "Старий Майстер"}
Language                       : Ukrainian
Default                        : Yes
Forced                         : No

Audio #2
ID                             : 3
Format                         : AC-3
Format/Info                    : Audio Coding 3
Mode extension                 : CM (complete main)
Format settings, Endianness    : Big
Codec ID                       : A_AC3
Duration                       : 1h 42mn
Bit rate mode                  : Constant
Bit rate                       : 384 Kbps
Channel(s)                     : 6 channels
Channel positions              : Front: L C R, Side: L R, LFE
Sampling rate                  : 48.0 KHz
Bit depth                      : 16 bits
Compression mode               : Lossy
Stream size                    : 283 MiB (13%)
Title                          : 5.1; 384 kbps; original
Language                       : English
Default                        : No
Forced                         : No

Text
ID                             : 4
Format                         : UTF-8
Codec ID                       : S_TEXT/UTF8
Codec ID/Info                  : UTF-8 Plain Text
Title                          : full
Language                       : English
Default                        : No
Forced                         : No

Світлини














Джерело: &
Подяка Hulk1987 за запис звуку, Romario_O за зведення доріжки та Bovich за українізований постер
Особиста оцінка: 9 - давно не бачив настільки якісне кіно


 Трекер:    Зареєстрований   

Завантажити / скачати фільм українською



відео для новачків



 Зареєстрований:   2012-09-23 13:41
 Розмір:   2.18 GB 
 Оцінка фільму:   9.8/10 (Голосів: 42)
   
Інші релізи
   Піджак / The Jacket (2005) 720p 2xUkr/Eng | Sub Eng braveboy  5 / 0   6.27 GB   2014-10-25 05:02 
   Піджак / The Jacket (2005) 2xUkr/Eng | Sub Eng Romario_O  11 / 2   2.46 GB   2012-12-30 18:22 
pohgejib 
VIP


З нами з: 06.06.08
Востаннє: 26.11.16
Повідомлень: 362

2012-09-23 16:22  
Чудовий фільм!
Kowin 
Поважний учасник


З нами з: 28.07.08
Востаннє: 22.09.16
Повідомлень: 166

2012-09-23 18:25  
прекрасно!
а буде бдремукс?

DеLight 
Відео Гуртом - фільмокрай
Відео Гуртом - фільмокрай


З нами з: 24.08.11
Востаннє: 17.11.16
Повідомлень: 664

2012-09-23 18:31  
Kowin
Від мене - ні, мені вистачає і такої якості, тим більше, моє залізо застаре для 1080p.

zvbm 
Свій


З нами з: 20.05.12
Востаннє: 04.02.16
Повідомлень: 76

2012-09-24 10:46  
ой, шось стількі відгуків класних, певне качну!
FaB0SS 
Відео Гуртом - фільмокрай
Відео Гуртом - фільмокрай


З нами з: 04.08.08
Востаннє: 04.12.16
Повідомлень: 522

2012-09-24 20:58  
Чудовий фільм!
Дивився давно, знайомі порадили, отримав масу задоволення від перегляду.
Про фільм можна сказати так:
Нарешті щось нове! Таке, що розбавляє всю фантастику, яка зараз робиться, як під копірку.
Моя оцінка 10/10.
Бажаю приємного перегляду Happy

annamerika 
Новенький


З нами з: 09.07.12
Востаннє: 16.03.13
Повідомлень: 1

2012-09-25 13:18  
так! фільм просто зе бест! 10 із 10!
hellforces 
VIP


З нами з: 25.06.08
Востаннє: 11.11.16
Повідомлень: 1556

2012-09-25 14:14  
почав вже дивитися і вияснилося, що тут поганий звук, доведеться чекати іншої озвучки
zvbm 
Свій


З нами з: 20.05.12
Востаннє: 04.02.16
Повідомлень: 76

2012-09-25 14:49  
На мій погляд, цей фільм не вдала пародія фільму "Ефект метелика"....
Virake 
Localize Team
Localize Team


З нами з: 07.07.09
Востаннє: 04.12.16
Повідомлень: 4053

2012-09-25 15:43  
класний і глибокий фільм, всім раджу.
Chibs 
Новенький


З нами з: 23.02.10
Востаннє: 04.12.16
Повідомлень: 18

2012-10-06 01:17  
Цитата:
На мій погляд, цей фільм не вдала пародія фільму "Ефект метелика"....

а мені протягом всього перегляду "12 мавп" згадувалися.

Ваш часовий пояс: GMT + 2 Години

Нова тема   Відповісти