Завантажити та скачати торренти українською


5 років майже одружені / The Five-Year Engagement (2012) AVC Eng | sub Ukr/Eng

Нові коментарі

Нова тема   Відповісти
Автор Повідомлення
DеLight 
Відео Гуртом - фільмокрай
Відео Гуртом - фільмокрай


З нами з: 24.08.11
Востаннє: 17.11.16
Повідомлень: 663

2012-09-22 22:07  
5 років майже одружені / The Five-Year Engagement (2012) AVC Eng | sub Ukr/Eng

5 років майже одружені / The Five-Year Engagement (2012) AVC Eng | sub Ukr/Eng

«Свято, яке вічно з тобою»


Жанр: комедія, романтичний
Країна: США



рейтинг MPAA: R - Особам до 17 років обов'язкова присутність дорослого


Кіностудія / кінокомпанія: Apatow Productions



Ніколас Столлер / Nicholas Stoller

Джейсон Сігел / Jason Segel, Емілі Блант / Emily Blunt, Кріс Пратт / Chris Pratt, Елісон Брі / Alison Brie, Лорен Відман / Lauren Weedman, Мімі Кеннеді / Mimi Kennedy, Девід Пеймер / David Paymer, Джекі Уівер / Jacki Weaver, Джим Піддок / Jim Piddock, Ерік Скотт Купер / Eric Scott Cooper, Дакота Джонсон / Dakota Johnson, Джейн Карр / Jane Carr, Клемент фон Франкенштейн / Clement von Franckenstein, Майкл Енсін / Michael Ensign, Медж Левінсон / Madge Levinson

Він - запропонував, вона - погодилася! Здавалося б, справа в капелюсі - майже одружені. Але весілля стає нездійсненною місією, коли в справу вступає загін колишніх подружок нареченого, бос нареченої, тріщить по швах список гостей і старенькі родичі, які мають тенденцію вмирати в найбільш незручний момент. І начебто трошки одружені, але все якось не до кінця...



Тривалість: 02:04:21
Якість: AVC [ріп з Remux 1080p; джерело: ]

Відео:
кодек:
розмір кадру: 1168 x 632
бітрейт: 2 576 кб/с

Аудіо:
мова: англійська
переклад: оригінал
кодек: 5.1
бітрейт: 384 кб/с

Субтитри #1: повні
мова: українська
тип: програмні (м'які)
формат: *.srt
редагування: Delight

Субтитри #2: форсовані
мова: українська
тип: програмні (м'які)
формат: *.srt

Субтитри #3: SDH
мова: англійська
тип: програмні (м'які)
формат: *.srt

Джерело субтитрів:


MediaInfo

Код:
General
Unique ID                      : 194031449704150780990856656269933256586 (0x91F91910E11F6C66B3BE08E4F2339F8A)
Complete name                  : D:\Torrents\The Five-Year Engagement (2012) AVC [Eng, sub Ukr, Eng].mkv
Format                         : Matroska
Format version                 : Version 2
File size                      : 2.57 GiB
Duration                       : 2h 4mn
Overall bit rate               : 2 961 Kbps
Movie name                     : The Five-Year Engagement (2012) AVC [Eng, sub Ukr, Eng] by Delight
Encoded date                   : UTC 2012-09-22 18:50:58
Writing application            : mkvmerge v5.8.0 ('No Sleep / Pillow') built on Sep  2 2012 15:37:04
Writing library                : libebml v1.2.3 + libmatroska v1.3.0

Video
ID                             : 1
Format                         : AVC
Format/Info                    : Advanced Video Codec
Format profile                 : [email protected]
Format settings, CABAC         : Yes
Format settings, ReFrames      : 9 frames
Codec ID                       : V_MPEG4/ISO/AVC
Duration                       : 2h 4mn
Bit rate                       : 2 576 Kbps
Width                          : 1 168 pixels
Height                         : 632 pixels
Display aspect ratio           : 1.85:1
Frame rate mode                : Constant
Frame rate                     : 23.976 fps
Color space                    : YUV
Chroma subsampling             : 4:2:0
Bit depth                      : 8 bits
Scan type                      : Progressive
Bits/(Pixel*Frame)             : 0.146
Stream size                    : 2.19 GiB (85%)
Title                          : The Five-Year Engagement (2012) AVC
Writing library                : core 125
Encoding settings              : cabac=1 / ref=9 / deblock=1:-3:-3 / analyse=0x3:0x133 / me=umh / subme=11 / psy=1 / psy_rd=1.00:0.00 / mixed_ref=1 / me_range=32 / chroma_me=1 / trellis=2 / 8x8dct=1 / cqm=0 / deadzone=21,11 / fast_pskip=0 / chroma_qp_offset=-4 / threads=6 / lookahead_threads=1 / sliced_threads=0 / nr=0 / decimate=1 / interlaced=0 / bluray_compat=0 / constrained_intra=0 / bframes=9 / b_pyramid=2 / b_adapt=2 / b_bias=0 / direct=3 / weightb=1 / open_gop=0 / weightp=2 / keyint=250 / keyint_min=23 / scenecut=40 / intra_refresh=0 / rc_lookahead=60 / rc=2pass / mbtree=1 / bitrate=2576 / ratetol=1.0 / qcomp=0.70 / qpmin=0 / qpmax=69 / qpstep=4 / cplxblur=20.0 / qblur=0.5 / ip_ratio=1.40 / aq=1:1.00
Language                       : English
Default                        : Yes
Forced                         : No

Audio
ID                             : 2
Format                         : AC-3
Format/Info                    : Audio Coding 3
Mode extension                 : CM (complete main)
Format settings, Endianness    : Big
Codec ID                       : A_AC3
Duration                       : 2h 4mn
Bit rate mode                  : Constant
Bit rate                       : 384 Kbps
Channel(s)                     : 6 channels
Channel positions              : Front: L C R, Side: L R, LFE
Sampling rate                  : 48.0 KHz
Bit depth                      : 16 bits
Compression mode               : Lossy
Stream size                    : 342 MiB (13%)
Title                          : 5.1; 384 kbps; original
Language                       : English
Default                        : Yes
Forced                         : No

Text #1
ID                             : 3
Format                         : UTF-8
Codec ID                       : S_TEXT/UTF8
Codec ID/Info                  : UTF-8 Plain Text
Title                          : full
Language                       : Ukrainian
Default                        : Yes
Forced                         : No

Text #2
ID                             : 4
Format                         : UTF-8
Codec ID                       : S_TEXT/UTF8
Codec ID/Info                  : UTF-8 Plain Text
Title                          : forced
Language                       : Ukrainian
Default                        : No
Forced                         : No

Text #3
ID                             : 5
Format                         : UTF-8
Codec ID                       : S_TEXT/UTF8
Codec ID/Info                  : UTF-8 Plain Text
Title                          : SDH
Language                       : English
Default                        : No
Forced                         : No

Світлини



















Особиста оцінка: 9 - Класнючий фільм, і по сюжету, і насміявся від душі. Раджу!


 Трекер:    Зареєстрований   

Завантажити / скачати фільм українською



відео для новачків



 Зареєстрований:   2012-09-22 22:07
 Розмір:   2.57 GB 
 Оцінка фільму:   9.2/10 (Голосів: 12)
   
pyatachok 
Координатор літератури


З нами з: 30.01.10
Востаннє: 10.12.16
Повідомлень: 1337

2012-09-23 00:51  
Delight`
Додайте хоча б один скрін з субтитрами.

DеLight 
Відео Гуртом - фільмокрай
Відео Гуртом - фільмокрай


З нами з: 24.08.11
Востаннє: 17.11.16
Повідомлень: 663

2012-09-23 09:36  
pyatachok
Зовсім забув про це вчора, зараз додам!

Додано через 33 хвилини 57 секунд:

Оновив скріни!

merlin_zaraza 
Свій


З нами з: 20.06.09
Востаннє: 10.12.16
Повідомлень: 124

2012-09-23 11:18  
а дубляж буде?
DеLight 
Відео Гуртом - фільмокрай
Відео Гуртом - фільмокрай


З нами з: 24.08.11
Востаннє: 17.11.16
Повідомлень: 663

2012-09-23 11:37  
merlin_zaraza
Ви ж бачите, що Blu-ray вийшов без дубляжа, тільки із сабами http://www.blu-ray.com/movies/The-Five-Year-Engagement-Blu-ray/45788/#10, тоді де він візьметься?..

vovchyck 
Свій


З нами з: 22.02.09
Востаннє: 10.12.16
Повідомлень: 146

2012-09-30 13:58  
в українській мові нема слова "самий"
pyatachok 
Координатор літератури


З нами з: 30.01.10
Востаннє: 10.12.16
Повідомлень: 1337

2012-09-30 14:47  
vovchyck
Так, ступеня порівняння "самий" нема. Поправив.

The_Marlboro 
Відео Гуртом - субтитрування
Відео Гуртом - субтитрування


З нами з: 23.05.10
Востаннє: 10.12.16
Повідомлень: 2854

2012-10-02 14:19  
Додавати укр доріжку будеш?
DеLight 
Відео Гуртом - фільмокрай
Відео Гуртом - фільмокрай


З нами з: 24.08.11
Востаннє: 17.11.16
Повідомлень: 663

2012-10-02 14:29  
TheMarlboro
Додав би, але BOOGud зробив розширену версію (UNRATED).

Ваш часовий пояс: GMT + 2 Години

Нова тема   Відповісти