Завантажити та скачати торренти українською


Інкасатор / Armored (2009) 720p Ukr/Eng | Sub Ukr/Eng

Нові коментарі

Нова тема   Відповісти
Автор Повідомлення
4erkov 
Відео Гуртом - запис з ТБ
Відео Гуртом - запис з ТБ


З нами з: 09.10.10
Востаннє: 11.12.16
Повідомлень: 1846

2012-09-20 21:06  
Інкасатор / Armored (2009) 720p Ukr/Eng | Sub Ukr/Eng

Інкасатор / Armored (2009) 720p Ukr/Eng | Sub Ukr/Eng
Альтернативний постер



Жанр: екшн, кримінальний, трилер
Країна: США

Кіностудія / кінокомпанія: Screen Gems, Buckaroo Entertainment
Режисер: Німрод Антал
Актори: Метт Діллон, Жан Рено, Лоуренс Фішберн, Аморі Ноласко, Фред Bард, Міло Вентіміглія, Скіт Улріч, Колумбус Шорт, Андре Кінні, Андрью Фіскелла, Нік Джеймсон, Гленн Таранто
Сюжет:
Ветеран бойових дій Тай Хеккет повертається додому після служби в Іраку. У пошуках засобів до існування і бажання піклуватися про свого молодшого брата, Тай змушений перебиватися з роботи на роботу. Одного разу він вступає на інкасаторську службу, де від старого друга сім'ї Майка отримує, здавалося б, вигідну пропозицію, - обікрасти свій же ескорт з грошима, коли буде перевозитися особливо велика сума грошей. Вагаючись, і не знаючи, як вести себе в цій ситуації, Хеккет все ж погоджується на операцію, після того, як органи опіки роблять спроби забрати його брата в притулок під приводом «кращої турботи про хлопчика». Все ж погодившись на злочин, чесний і справедливий солдат йде на компроміс - ніяких жертв, ніяких трупів. Коли ж все пішло не так, Тай Хеккет встає по той бік «своїх», за всяку ціну запобігаючи ідеально спланованій крадіжці грошей і запобігаючи появи нових жертв. Один проти кількох, - чи зможе він перемогти? Боротьба не на життя, а на смерть починається...

Тривалість: 01:27:53
Якість:
Відео:
кодек:
розмір кадру: 1280 х 534
бітрейт: 5471 кб/с

Аудіо:
мова: українська
переклад: багатоголосий закадровий
кодек: 2.0
бітрейт: 192 кб/с

Аудіо # 2:
мова: англійська
переклад: оригінал
кодек: 5.1
бітрейт: 1510 кб/с

Субтитри:
мова: укаїнська | з BD
тип: програмні (м'які)
формат: *.srt

Субтитри # 2:
мова: англійська
тип: програмні (м'які)
формат: *.srt
Трансляція телеканалу:
Скріншоти






Media-Info
General
Unique ID : 200346585965342365824220198161422580490 (0x96B9595299D7B72EBBBD49CCB9C97B0A)
Complete name : D:\Релізи\Movies\Armored (2009) [ukr,eng] 720p [Hurtom].mkv
Format : Matroska
Format version : Version 2
File size : 4.49 GiB
Duration : 1h 27mn
Overall bit rate : 7 319 Kbps
Movie name : Hurtom
Encoded date : UTC 2012-09-16 15:39:38
Writing application : mkvmerge v5.6.0 ('Kenya Kane') built on May 27 2012 16:44:04
Writing library : libebml v1.2.3 + libmatroska v1.3.0

Video
ID : 1
Format : AVC
Format/Info : Advanced Video Codec
Format profile : [email protected]
Format settings, CABAC : Yes
Format settings, ReFrames : 9 frames
Codec ID : V_MPEG4/ISO/AVC
Duration : 1h 27mn
Bit rate : 5 471 Kbps
Width : 1 280 pixels
Height : 534 pixels
Display aspect ratio : 2.40:1
Frame rate : 23.976 fps
Color space : YUV
Chroma subsampling : 4:2:0
Bit depth : 8 bits
Scan type : Progressive
Bits/(Pixel*Frame) : 0.334
Stream size : 3.36 GiB (75%)
Title : 720p
Language : English
Default : Yes
Forced : No

Audio #1
ID : 2
Format : AC-3
Format/Info : Audio Coding 3
Mode extension : CM (complete main)
Format settings, Endianness : Big
Codec ID : A_AC3
Duration : 1h 27mn
Bit rate mode : Constant
Bit rate : 192 Kbps
Channel(s) : 2 channels
Channel positions : Front: L R
Sampling rate : 48.0 KHz
Bit depth : 16 bits
Compression mode : Lossy
Stream size : 121 MiB (3%)
Title : ICTV
Language : Ukrainian
Default : Yes
Forced : No

Audio #2
ID : 3
Format :
Format/Info : Digital Theater Systems
Codec ID : A_DTS
Duration : 1h 27mn
Bit rate mode : Constant
Bit rate : 1 510 Kbps
Channel(s) : 6 channels
Channel positions : Front: L C R, Side: L R, LFE
Sampling rate : 48.0 KHz
Bit depth : 24 bits
Compression mode : Lossy
Stream size : 949 MiB (21%)
Title : Original
Language : English
Default : No
Forced : No

Text #1
ID : 4
Format : UTF-8
Codec ID : S_TEXT/UTF8
Codec ID/Info : UTF-8 Plain Text
Language : Ukrainian
Default : No
Forced : No

Text #2
ID : 5
Format : UTF-8
Codec ID : S_TEXT/UTF8
Codec ID/Info : UTF-8 Plain Text
Language : English
Default : No
Forced : No

Джерело:
Особиста оцінка: 8 - непоганий фільм з напруженим сюжетом


 Трекер:    Зареєстрований   

Завантажити / скачати фільм українською



відео для новачків



 Зареєстрований:   2012-09-20 21:06
 Розмір:   4.49 GB 
 Оцінка фільму:   8.9/10 (Голосів: 10)
   
Інші релізи
   Інкасатор / Armored (2009) Ukr/Eng | Sub Ukr/Eng 4erkov  4 / 0   1.57 GB   2012-09-20 20:44 
Myshko3007 
Частий відвідувач


З нами з: 16.01.11
Востаннє: 11.12.16
Повідомлень: 41

2012-09-21 11:39  
Непоганий фільм.Сподобався мені навіть після того, як остогидли бойовики і трилери. Wink (1)
rathunter 
Новенький


З нами з: 05.01.11
Востаннє: 04.02.16
Повідомлень: 9

2012-11-03 00:38  
Підтримую, справді кінофільм вартий уваги. Дещо незвично бачити вдалу підбірку "позитивних" акторів у негативних ролях... Rolleyes (2)
v5511 
Новенький


З нами з: 11.12.15
Востаннє: 10.12.16
Повідомлень: 11

2016-09-25 15:08  
нема роздачі!!!
Ваш часовий пояс: GMT + 2 Години

Нова тема   Відповісти