Завантажити та скачати торренти українською


VA - Фольклорні скарби Донеччини (3CD) (2006) [WV] | Folk

Нові коментарі

Нова тема   Відповісти
Автор Повідомлення
ssTAss 
Модератор музики


З нами з: 05.07.08
Востаннє: 10.12.16
Повідомлень: 10950

2012-09-19 18:16  
VA - Фольклорні скарби Донеччини (3CD) (2006) [WV] | Folk

VA - Фольклорні скарби Донеччини (3CD) (2006) [WV] | Folk


Стиль: Folk
Країна, місто: Україна, села Донецької області
Видавець: Rostok Records (запис 2006, видано 2007)
Виконавці:
VA
Альбоми:
    Пісні села Андріївки
    Фольклорний ансамбль "Вечорниці" - Пісні села Андріївки (2006) [WV] | Folk

    VA - Фольклорні скарби Донеччини (3CD) (2006) [WV] | Folk


    Стиль: Folk
    Країна, місто: Україна, с. Андріївка
    Видавець: Rostok Records
    Виконавці:
    Доценко Ганна Федорівна - керівник
    Зятина Ніна Данилівна
    Босак Ніна Іларіонівна
    Акритова Фенія Василівна
    Гонтар Тетяна Олександрівна
    Пісні:
      01 - Як помию звечора ноги
      02 - Ой, у полі озеречко
      03 - Од моря до моря
      04 - Квіточка моя
      05 - Зійшов місяць із-за хмари
      06 - Ой, політь поліяка
      07 - Ой, вітер, вітерок не дише (наймицька)
      08 - Кучерявчик
      09 - Усі гори зеленіють
      10 - Жила-була вдова сім літ на Подолі
      11 - Ой, летів орел
      12 - Ой, гора, гора, гора високая
      13 - Ой, по морю-морю
      14 - Ой, на річці (щедрівка)
    log
    Exact Audio Copy V1.0 beta 1 from 15. November 2010

    EAC extraction logfile from 11. May 2011, 0:06

    Вечорниці / Фольклорні скарби Донеччини - Пісні села Андріївки

    Used drive : Optiarc DVD RW AD-7241S Adapter: 2 ID: 0

    Read mode : Secure
    Utilize accurate stream : Yes
    Defeat audio cache : Yes
    Make use of C2 pointers : No

    Read offset correction : 48
    Overread into Lead-In and Lead-Out : No
    Fill up missing offset samples with silence : Yes
    Delete leading and trailing silent blocks : No
    Null samples used in CRC calculations : Yes
    Used interface : Installed external ASPI interface

    Used output format : User Defined Encoder
    Selected bitrate : 1024 kBit/s
    Quality : High
    Add ID3 tag : No
    Command line compressor : C:\Program Files\Exact Audio Copy\wavpack.exe
    Additional command line options : -hlm %s

    TOC of the extracted CD

    Track | Start | Length | Start sector | End sector
    ---------------------------------------------------------
    1 | 0:00.00 | 2:05.20 | 0 | 9394
    2 | 2:05.20 | 2:29.16 | 9395 | 20585
    3 | 4:34.36 | 2:36.29 | 20586 | 32314
    4 | 7:10.65 | 2:06.67 | 32315 | 41831
    5 | 9:17.57 | 3:51.67 | 41832 | 59223
    6 | 13:09.49 | 2:53.24 | 59224 | 72222
    7 | 16:02.73 | 3:17.50 | 72223 | 87047
    8 | 19:20.48 | 2:04.68 | 87048 | 96415
    9 | 21:25.41 | 4:18.48 | 96416 | 115813
    10 | 25:44.14 | 4:29.25 | 115814 | 136013
    11 | 30:13.39 | 3:31.69 | 136014 | 151907
    12 | 33:45.33 | 1:58.39 | 151908 | 160796
    13 | 35:43.72 | 3:26.69 | 160797 | 176315
    14 | 39:10.66 | 4:46.25 | 176316 | 197790

    Range status and errors

    Selected range

    Filename C:\Вечорниці - Фольклорні скарби Донеччини - Пісні села Андріївки\Вечорниці - Фольклорні скарби Донеччини - Пісні села Андріївки.wav

    Peak level 100.0 %
    Extraction speed 0.4 X
    Range quality 100.0 %
    Test CRC FAF0BE82
    Copy CRC FAF0BE82
    Copy OK

    No errors occurred

    AccurateRip summary

    Track 1 not present in database
    Track 2 not present in database
    Track 3 not present in database
    Track 4 not present in database
    Track 5 not present in database
    Track 6 not present in database
    Track 7 not present in database
    Track 8 not present in database
    Track 9 not present in database
    Track 10 not present in database
    Track 11 not present in database
    Track 12 not present in database
    Track 13 not present in database
    Track 14 not present in database

    None of the tracks are present in the AccurateRip database

    End of status report

    ==== Log checksum 7986C2E84B25497B2C4AA522A47AD36A9C870683855959C61CB74A578AD1E479 ====
    Тривалість: 00:43:57
    Мова: українська
    Аудіо-кодек: WavPack (high)
    Бітрейт: 841 кб/с
    Джерело: нетлаб
    Пісні села Єгорівка
    VA - Пісні села Єгорівка (2006) [WV] | Folk

    VA - Фольклорні скарби Донеччини (3CD) (2006) [WV] | Folk


    Стиль: Folk
    Країна, місто: Україна, с. Єгорівка
    Видавець: Rostok Records
    Виконавці:
    Дзюба Євдокія Іванівна
    Овсієнко Тетяна Олексіївна
    Кравець Євдокія Степанівна
    Баглай Катерина Семенівна
    Білокоша Любов Яківна
    Стадник Ганна Дмитрівна - керівник
    Пісні:
      01 - Ой, не ходи, ой, да кучерявчик
      02 - Ой, при лужку
      03 - Ой, ти гаю-гаю
      04 - Ой, ти сад ти моє сад
      05 - Вчора було літечко
      06 - Ой, у лузі край дороги
      07 - Ой, да по березку
      08 - Ой, верба-верба
      09 - Ой, туман с поля налягає
      10 - Як вигоню на яр товар
      11 - У неділю п'ю, п'ю
      12 - Не с ким, не ским эту ночку ночевала
      13 - Дрібний дощик іде
      14 - Вітер віє, ой, віє повіває
      15 - Летів орел через сад зелений
      16 - Як піду я понад лугом
      17 - Посіяли дівки льон
      18 - Ой, там на горі
      19 - Ой, дивноє небо роджене (колядка)
      20 - Лугом іду, коня веду
      21 - Ой, у полі дві тополі
      22 - З-під каменя, ой, вода ллється
    log
    Exact Audio Copy V1.0 beta 1 from 15. November 2010

    EAC extraction logfile from 10. May 2011, 22:31

    Фольклорні скарби Донеччини / Пісні села Єгорівка

    Used drive : Optiarc DVD RW AD-7241S Adapter: 2 ID: 0

    Read mode : Secure
    Utilize accurate stream : Yes
    Defeat audio cache : Yes
    Make use of C2 pointers : No

    Read offset correction : 48
    Overread into Lead-In and Lead-Out : No
    Fill up missing offset samples with silence : Yes
    Delete leading and trailing silent blocks : No
    Null samples used in CRC calculations : Yes
    Used interface : Installed external ASPI interface

    Used output format : User Defined Encoder
    Selected bitrate : 1024 kBit/s
    Quality : High
    Add ID3 tag : No
    Command line compressor : C:\Program Files\Exact Audio Copy\wavpack.exe
    Additional command line options : -hlm %s

    TOC of the extracted CD

    Track | Start | Length | Start sector | End sector
    ---------------------------------------------------------
    1 | 0:00.00 | 2:34.14 | 0 | 11563
    2 | 2:34.14 | 3:08.55 | 11564 | 25718
    3 | 5:42.69 | 3:20.16 | 25719 | 40734
    4 | 9:03.10 | 2:06.44 | 40735 | 50228
    5 | 11:09.54 | 3:57.71 | 50229 | 68074
    6 | 15:07.50 | 2:43.18 | 68075 | 80317
    7 | 17:50.68 | 2:31.70 | 80318 | 91712
    8 | 20:22.63 | 3:02.28 | 91713 | 105390
    9 | 23:25.16 | 2:04.50 | 105391 | 114740
    10 | 25:29.66 | 1:50.06 | 114741 | 122996
    11 | 27:19.72 | 1:04.72 | 122997 | 127868
    12 | 28:24.69 | 2:38.14 | 127869 | 139732
    13 | 31:03.08 | 3:48.46 | 139733 | 156878
    14 | 34:51.54 | 4:34.43 | 156879 | 177471
    15 | 39:26.22 | 3:59.54 | 177472 | 195450
    16 | 43:26.01 | 5:17.64 | 195451 | 219289
    17 | 48:43.65 | 1:20.49 | 219290 | 225338
    18 | 50:04.39 | 5:27.62 | 225339 | 249925
    19 | 55:32.26 | 3:40.71 | 249926 | 266496
    20 | 59:13.22 | 3:31.52 | 266497 | 282373
    21 | 62:44.74 | 5:49.51 | 282374 | 308599
    22 | 68:34.50 | 4:01.56 | 308600 | 326730

    Range status and errors

    Selected range

    Filename C:\Фольклорні скарби Донеччини - Пісні села Єгорівка\Фольклорні скарби Донеччини - Пісні села Єгорівка.wav

    Peak level 100.0 %
    Extraction speed 0.2 X
    Range quality 100.0 %
    Test CRC A2D89320
    Copy CRC A2D89320
    Copy OK

    No errors occurred

    AccurateRip summary

    Track 1 not present in database
    Track 2 not present in database
    Track 3 not present in database
    Track 4 not present in database
    Track 5 not present in database
    Track 6 not present in database
    Track 7 not present in database
    Track 8 not present in database
    Track 9 not present in database
    Track 10 not present in database
    Track 11 not present in database
    Track 12 not present in database
    Track 13 not present in database
    Track 14 not present in database
    Track 15 not present in database
    Track 16 not present in database
    Track 17 not present in database
    Track 18 not present in database
    Track 19 not present in database
    Track 20 not present in database
    Track 21 not present in database
    Track 22 not present in database

    None of the tracks are present in the AccurateRip database

    End of status report

    ==== Log checksum 5D21C07762E4AFA5E6901D1DA43F9FD82C60DF1F77C25CF64724FFCD63536B30 ====
    Тривалість: 01:12:36
    Мова: українська, російська (12)
    Аудіо-кодек: WavPack (high)
    Бітрейт: 791 кб/с
    Джерело: нетлаб
    Пісні села Іскри
    Пошуково-дослідницький фольклористичний гурт "Колиска" - Пісні села Іскри (2006) [WV] | Folk

    VA - Фольклорні скарби Донеччини (3CD) (2006) [WV] | Folk


    Стиль: Folk
    Країна, місто: Україна, с. Іскра
    Видавець: Rostok Records
    Виконавці:
    Зайцева Любов Назарівна
    Невечеря Миколай Іванович
    Гурененко Ольга Опанасівна
    Фісівська Любов Іванівна
    Бондаренко Зінаїда Григорівна
    Гурененко Любов Леонтівна
    Лугова Раїса Миколаївна
    Тапол Лідія Іванівна
    Овчаренко Віра Опанасівна
    Букіна Людмила Миколаївна - керівник
    Пісні:
      01 - Дивид-вечір (весільна)
      02 - Ой, закувала зозуленька (весільна)
      03 - Ой, поросло жито (весільна)
      04 - Ой, вийду на гору
      05 - Ой, журавко, журавко (строкова), (наймацька)
      06 - Ой, горе тій чайці (чумацька)
      07 - Ой літає соколонька (обжинкова)
      08 - Ми своєму пану спорядили славу (обжинкова)
      09 - Ой, чи є, чи нема (щедрівка)
      10 - Прийшли щедрувати (щедрівка)
      11 - Калина-малина
      12 - Загляділа дівчинонька
    log
    Exact Audio Copy V1.0 beta 1 from 15. November 2010

    EAC extraction logfile from 10. May 2011, 21:11

    Колиска / Фольклорні скарби Дочеччини - Пісні села Іскри

    Used drive : Optiarc DVD RW AD-7241S Adapter: 2 ID: 0

    Read mode : Secure
    Utilize accurate stream : Yes
    Defeat audio cache : Yes
    Make use of C2 pointers : No

    Read offset correction : 48
    Overread into Lead-In and Lead-Out : No
    Fill up missing offset samples with silence : Yes
    Delete leading and trailing silent blocks : No
    Null samples used in CRC calculations : Yes
    Used interface : Native Win32 interface for Win NT & 2000

    Used output format : User Defined Encoder
    Selected bitrate : 1024 kBit/s
    Quality : High
    Add ID3 tag : No
    Command line compressor : C:\Program Files\Exact Audio Copy\wavpack.exe
    Additional command line options : -hlm %s

    TOC of the extracted CD

    Track | Start | Length | Start sector | End sector
    ---------------------------------------------------------
    1 | 0:00.00 | 2:59.62 | 0 | 13486
    2 | 2:59.62 | 1:44.37 | 13487 | 21323
    3 | 4:44.24 | 3:21.48 | 21324 | 36446
    4 | 8:05.72 | 4:19.47 | 36447 | 55918
    5 | 12:25.44 | 4:10.57 | 55919 | 74725
    6 | 16:36.26 | 3:23.28 | 74726 | 89978
    7 | 19:59.54 | 2:32.52 | 89979 | 101430
    8 | 22:32.31 | 1:48.60 | 101431 | 109590
    9 | 24:21.16 | 0:51.52 | 109591 | 113467
    10 | 25:12.68 | 2:59.17 | 113468 | 126909
    11 | 28:12.10 | 4:58.36 | 126910 | 149295
    12 | 33:10.46 | 2:18.70 | 149296 | 159715

    Range status and errors

    Selected range

    Filename C:\Колиска - Фольклорні скарби Дочеччини - Пісні села Іскри\Колиска - Фольклорні скарби Дочеччини - Пісні села Іскри.wav

    Peak level 100.0 %
    Extraction speed 0.2 X
    Range quality 99.9 %
    Test CRC 4A04A2AB
    Copy CRC 4A04A2AB
    Copy OK

    No errors occurred

    AccurateRip summary

    Track 1 not present in database
    Track 2 not present in database
    Track 3 not present in database
    Track 4 not present in database
    Track 5 not present in database
    Track 6 not present in database
    Track 7 not present in database
    Track 8 not present in database
    Track 9 not present in database
    Track 10 not present in database
    Track 11 not present in database
    Track 12 not present in database

    None of the tracks are present in the AccurateRip database

    End of status report

    ==== Log checksum 33B9AFFE508A5404E471355F91BBA7C33AF90D1D9A1FF828FDF20224AB70D691 ====
    Тривалість: 00:35:30
    Мова: українська
    Аудіо-кодек: WavPack (high)
    Бітрейт: 824 кб/с
    Джерело: нетлаб

Тривалість: 02:32:03
Мова: українська
Аудіо-кодек: WavPack (high)
Бітрейт: 791-841 кб/с
Джерело: нетлаб

Якщо Ви справді бажаєте підтримати українське - після прослуховування, якщо музика вам сподобалась,
придбайте ліцензійний диск.
Підтримаймо вітчизняних виконавців!


Срібний реліз (на рейтинг впливає 50% завантаженого)
 Трекер:    Зареєстрований   

Завантажити / скачати українську музику



відео для новачків



 Зареєстрований:   2012-09-19 18:16
 Розмір:   985 MB 
 Оцінка музики:   7.3/10 (Голосів: 10)
   
Форкуш 
VIP


З нами з: 03.02.10
Востаннє: 09.12.16
Повідомлень: 1545

2012-09-19 20:06  
ого!!
Чудесний реліз!
А 320 не буде?

ssTAss 
Модератор музики


З нами з: 05.07.08
Востаннє: 10.12.16
Повідомлень: 10950

2012-09-19 20:10  
Форкуш написано:
А 320 не буде?

від мене ні

Форкуш 
VIP


З нами з: 03.02.10
Востаннє: 09.12.16
Повідомлень: 1545

2012-09-20 07:38  
ssTAss написано:
від мене ні

Шкода...

Це ЕАСом грабати чи АІМРом можна теж незле???

Ще питання - це бойківські села чи таки ісконно донецькі?

ssTAss 
Модератор музики


З нами з: 05.07.08
Востаннє: 10.12.16
Повідомлень: 10950

2012-09-20 19:42  
Форкуш написано:
Це ЕАСом грабати чи АІМРом можна теж незле???

чим хочете
вірніше, що читає образ і грабає)
Форкуш написано:
Ще питання - це бойківські села чи таки ісконно донецькі?

а Ви як думаєте? та й чи бойки дозволили си
ssTAss написано:
11 - У неділю п'ю, п'ю

чи говорити про таке
ssTAss написано:
12 - Не с ким, не ским эту ночку ночевала

??
хованнє не дозволило б

Форкуш 
VIP


З нами з: 03.02.10
Востаннє: 09.12.16
Повідомлень: 1545

2012-09-20 20:59  
Думаю, що говорили і не таке)))

Але це ще краще, тим що автентичний фолькльор на Донеччині ще існує...

ingwar 
Модератор літератури


З нами з: 08.03.08
Востаннє: 09.12.16
Повідомлень: 1200

2012-09-28 07:18  
Дуже цікаво, що на Донбасі зараз ще співають українською
song 
Свій


З нами з: 23.10.12
Востаннє: 18.09.16
Повідомлень: 73

2013-03-02 17:49  
Справді варто прослухати. Те що Донеччина це український край не має жодного сумніву. В етнографічному плані область поділена між Запорожжям та Донщиною з малою частиною Слобожанщини. Інша річ, що автентичний фольклор у виконанні людей, які проживають в даному регіоні не завжди відображає етнографічний характер місцевості, оскільки переселення-перемішання і саме уподобання людей конкретного періоду якраз може і вводити в оману слухачів, що щось на зразок "У неділю п'ю, п'ю" або "Не с ким, не ским эту ночку ночевала" є типовим для даної місцевості. Скорш за все "Не с ким, не ским эту ночку ночевала" є запозиченням, яке хтось-колись на власне або чуже бажання й виконав, і тому воно виглядає штучним і неприроднім. Натомість у "У неділю п'ю, п'ю" яскравий приклад радянської атеїзації українського народу. Але саме видання альбомів є необхідним, щоб добре розуміти, що українська народня мова є присутня на всій Україні.
Такі слова як "Донбас" або "Кривбас" мають винятково промисловий характер радянської доби і тому краще такими словами не визначати назви українських земель.

Ваш часовий пояс: GMT + 2 Години

Нова тема   Відповісти