Завантажити та скачати торренти українською


Месники / The Avengers (2012) 720p

Нові коментарі

Нова тема   Відповісти
Автор Повідомлення
Drool 
VIP


З нами з: 17.04.10
Востаннє: 03.12.16
Повідомлень: 1262

2012-09-19 13:17  
Месники / The Avengers (2012) 720p

Жанр: фантастика, бойовик, екшн, пригодницький
Країна: США



Кіностудія / кінокомпанія: Marvel, Paramount Pictures Corporation, Walt Disney Pictures
Режисер: Джосс Відон
Актори: Кріс Гемсворт, Роберт Дауні-молодший, Скарлет Йоганссон, Кріс Еванс, Джеремі Реннер, Семюель Л. Джексон, Ґвінет Пелтров, Стеллан Скарсгард, Том Гідлстон, Пол Беттані, Марк Руффало, Кларк Грегг

Сюжет:
Нік Фьюрі і секретне міжнародне агентство ЩИТ збирає разом супергероїв, серед яких Тор, Халк, Капітан Америка та Залізна Людина, і формує загін Месників, щоб захистити Землю від Локі та його інопланетної армії.


Тривалість: 02:22:54
Якість: 720p
Відео:
кодек:
розмір кадру: 1280x720
бітрейт: 3663 кб/с

Аудіо:
мова: українська
переклад: професійний дубльований
кодек: 5.1
бітрейт: 640 кб/с

Джерело озвучення:


Субтитри:
мова: українська (переклад з форсованих російських - Drool)
тип: програмні, форсовані (м'які)
формат: *.srt
Увага! В деяких місцях, де в оригіналі розмовляють не англійською (наприклад, допит Наташі Романової), присутні вшиті англійські субтитри!
MediaInfo
General
Unique ID : 48080474825335129694794714045413326498 (0x242BF66E4E85238DFE7D790B8597FEA2)
Complete name : /mnt/disk/Video/The.Avengers.2012.Ukr.Dub..720p.mkv
Format : Matroska
File size : 4.30 GiB
Duration : 2h 22mn
Overall bit rate : 4 304 Kbps
Movie name : Месники (2012) 720p (відео від UNiQUE)
Encoded date : UTC 2012-09-18 13:16:45
Writing application : mkvmerge v4.8.0 ('I Got The...') сборка от Aug 22 2011 13:16:28
Writing library : libebml v1.2.0 + libmatroska v1.1.0

Video
ID : 1
Format : AVC
Format/Info : Advanced Video Codec
Format profile : [email protected]
Format settings, CABAC : Yes
Format settings, ReFrames : 3 frames
Format settings, GOP : M=4, N=23
Codec ID : V_MPEG4/ISO/AVC
Duration : 2h 22mn
Bit rate mode : Variable
Bit rate : 3 663 Kbps
Maximum bit rate : 40.0 Mbps
Width : 1 280 pixels
Height : 720 pixels
Display aspect ratio : 16:9
Frame rate : 23.976 fps
Color space : YUV
Chroma subsampling : 4:2:0
Bit depth : 8 bits
Scan type : Progressive
Bits/(Pixel*Frame) : 0.166
Stream size : 3.57 GiB (83%)
Title : Месники (2012) 720p
Writing library : core 125 r2208 d9d2288
Encoding settings : cabac=1 / ref=4 / deblock=1:-1:-1 / analyse=0x3:0x113 / me=umh / subme=9 / psy=1 / psy_rd=1.00:0.15 / mixed_ref=1 / me_range=18 / chroma_me=1 / trellis=2 / 8x8dct=1 / cqm=0 / deadzone=21,11 / fast_pskip=0 / chroma_qp_offset=-3 / threads=6 / lookahead_threads=1 / sliced_threads=0 / slices=4 / nr=0 / decimate=1 / interlaced=0 / bluray_compat=0 / constrained_intra=0 / bframes=3 / b_pyramid=1 / b_adapt=2 / b_bias=0 / direct=1 / weightb=1 / open_gop=0 / weightp=0 / keyint=23 / keyint_min=1 / scenecut=40 / intra_refresh=0 / rc_lookahead=23 / rc=2pass / mbtree=1 / bitrate=3663 / ratetol=1.0 / qcomp=0.60 / qpmin=10 / qpmax=51 / qpstep=4 / cplxblur=20.0 / qblur=0.5 / vbv_maxrate=40000 / vbv_bufsize=30000 / nal_hrd=vbr / ip_ratio=1.40 / aq=1:1.00
Color primaries : BT.709-5, BT.1361, IEC 61966-2-4, SMPTE RP177
Transfer characteristics : BT.709-5, BT.1361
Matrix coefficients : BT.709-5, BT.1361, IEC 61966-2-4 709, SMPTE RP177

Audio
ID : 2
Format : AC-3
Format/Info : Audio Coding 3
Mode extension : CM (complete main)
Codec ID : A_AC3
Duration : 2h 22mn
Bit rate mode : Constant
Bit rate : 640 Kbps
Channel(s) : 6 channels
Channel positions : Front: L C R, Side: L R, LFE
Sampling rate : 48.0 KHz
Bit depth : 16 bits
Compression mode : Lossy
Stream size : 654 MiB (15%)
Title : Рідна мова
Language : Ukrainian

Text
ID : 3
Format : UTF-8
Codec ID : S_TEXT/UTF8
Codec ID/Info : UTF-8 Plain Text
Title : Українські (форсовані)
Language : Ukrainian
Скріншоти









Джерело: відеоряд взято з іноземного ріпу від RG UNiQUE
Особиста оцінка: 10 - без зайвих вагань рекомендую всім!


 Трекер:    Зареєстрований   

Завантажити / скачати фільм українською



відео для новачків



 Зареєстрований:   2012-09-19 13:17
 Розмір:   4.3 GB 
 Оцінка фільму:   9.9/10 (Голосів: 69)
   
Інші релізи
   Месники / The Avengers (2012) 1080p (60fps) Ukr/Eng | Sub Ukr/Eng grizz  0 / 0   22.1 GB   2012-10-03 16:00 
   Месники / The Avengers (2012) Remux Ukr/Eng | Sub Ukr/Eng AngryBirdsUA  1 / 0   29.35 GB   2012-08-31 21:57 
   Месники / The Avengers (2012) 720p Ukr/Eng | Sub Ukr/Eng AngryBirdsUA  8 / 0   6.42 GB   2012-08-23 14:54 
   Месники / The Avengers (2012) 1080p Ukr/Eng | Sub Ukr/Eng 11FrYkT  2 / 0   12.51 GB   2012-08-23 06:25 
   Месники / The Avengers (2012) [5.1 ] Ліцензія seroga13  0 / 0   458 MB   2012-08-21 17:56 
   Месники / The Avengers (2012) AVC Ukr/Eng | Sub Ukr/Eng Gelios  1 / 0   3.36 GB   2012-08-21 11:38 
   Месники / The Avengers (2012) Blu-ray 1080p Eng/Rus/Ukr | Sub Multi Drool  2 / 0   38.54 GB   2012-08-21 08:10 
   Месники / The Avengers (2012) LiquidatorFX  8 / 0   1.46 GB   2012-08-21 04:38 
   Месники / The Avengers (2012) LiquidatorFX  2 / 0   2.19 GB   2012-08-21 04:14 
Nakis 
VIP


З нами з: 19.09.08
Востаннє: 29.07.15
Повідомлень: 487

2014-04-02 11:50  
колонки тріщать від звуку, чи то варто плеєр поміняти чи що, порадьтеHappy
Віталік ЗАбіяка 
Новенький


З нами з: 24.07.14
Востаннє: 02.12.16
Повідомлень: 3

2014-07-31 13:02  
Дуже Хороший фільм )
AnneBullen 
Новенький


З нами з: 20.08.14
Востаннє: 01.12.16
Повідомлень: 1

2014-09-08 18:45  
Обожнюю цей фільм)
N.W.A 
VIP


З нами з: 22.11.13
Востаннє: 03.12.16
Повідомлень: 269

2015-07-24 12:19  
Зображення як на мене трохи темнувате, деякі деталі можна й не розгледіти, проте насиченісь кольорів радує!
Реліз кльовий. Дякую.

Ваш часовий пояс: GMT + 2 Години

Нова тема   Відповісти