Завантажити та скачати торренти українською


2001: Космічна Одіссея / 2001: A Space Odyssey (1968) 720р Ukr/Eng | Sub Ukr/Eng

Нові коментарі

Нова тема   Відповісти
Автор Повідомлення
chaoscor 
Свій


З нами з: 17.10.10
Востаннє: 03.12.16
Повідомлень: 73

2012-09-19 08:50  
2001: Космічна Одіссея / 2001: A Space Odyssey (1968) 720р Ukr/Eng | Sub Ukr/Eng

2001: Космічна Одіссея / 2001: A Space Odyssey (1968) 720р Ukr/Eng | Sub Ukr/Eng


Жанр: пригодницький, фантастика
Країна: США, Великобританія

Top 250 #95

Кіностудія / кінокомпанія: Metro-Goldwyn-Mayer (MGM), Stanley Kubrick Productions
Режисер: Стенлі Кубрик
Актори: Кір Даллі, Гарі Локвуд, Вільям Сільвестр, Деніел Ріхтер, Леонард Россітер, Маргарет Тізак, Роберт Бітті, Шон Салліван, Дуглас Рейн, Френк Міллер

Сюжет:
Хто ми? Яке місце ми займаємо у Всесвіті? Ці питання стоять перед героями фільму Стенлі Кубрика. Екіпаж космічного корабля С. С. Діскавері - капітани Дейв Боумен, Френк Пул та їх бортовий комп'ютер ХЕЛ-9000 - повинні дослідити район галактики та зрозуміти, чому інопланетяни стежать за Землею. На цьому шляху їх чекає безліч несподіваних відкриттів ...

Знятий у 1968 році, цей фільм випередив свій час на кілька світлових років!
Навіть нинішній глядач, розпещений великою кількістю "зоряних війн" на екрані, буде загіпнотизований блискучими спецефектами, які справедливо завоювали нагороду Американської Академії кіномистецтва. Видовищність "Космічної одіссеї 2001 року" - не на шкоду змістовності фільму.


Тривалість: 02:28:51
Якість:
Відео:
кодек:
розмір кадру: 1280 х 576
бітрейт: 5858 кб/с

Аудіо # 1:
мова: українська
переклад: двоголосий закадровий
кодек: 2.0 (стерео)
бітрейт: 192 кб/с
доріжку взято з релізу karvai0

Джерело озвучення:


Аудіо # 2:
мова: англійська
переклад: оригінал
кодек: 5.1
бітрейт: 448 кб/с

Субтитри: # 1
мова: українська
тип: програмні (м'які)
формат: *.srt
переклад з оригіналу: Lion91

Субтитри: # 2
мова: англійська
тип: програмні (м'які)
формат: *.srt
MediaInfo
D:\фільми\2001 A Space Odessey (1968) 720р. UkrEng Sub UkrEng.mkv
General
Complete name : D:\фільми\2001 A Space Odessey (1968) 720р. UkrEng Sub UkrEng.mkv
Format : Matroska
File size : 6.76 GiB
Duration : 2h 28mn
Overall bit rate : 6 501 Kbps
Encoded date : UTC 2012-09-19 05:52:45
Writing application : mkvmerge v5.2.1 ('A Far Off Place') built on Jan 2 2012 23:21:10
Writing library : libebml v1.2.3 + libmatroska v1.3.0
Video #1
ID : 1
Format : AVC
Format/Info : Advanced Video Codec
Format profile : [email protected]
Format settings, CABAC : Yes
Format settings, ReFrames : 8 frames
Muxing mode : Container [email protected]
Codec ID : V_MPEG4/ISO/AVC
Duration : 2h 28mn
Bit rate : 5 858 Kbps
Width : 1 280 pixels
Height : 576 pixels
Display aspect ratio : 2.222
Frame rate : 23.976 fps
Color space : YUV
Chroma subsampling : 4:2:0
Bit depth : 8 bits
Scan type : Progressive
Bits/(Pixel*Frame) : 0.331
Stream size : 5.96 GiB (88%)
Writing library : core 56 svn-667C
Encoding settings : cabac=1 / ref=5 / deblock=1:0:0 / analyse=0x3:0x133 / me=umh / subme=6 / brdo=1 / mixed_ref=1 / me_range=16 / chroma_me=1 / trellis=1 / 8x8dct=1 / cqm=2 / deadzone=4,6 / chroma_qp_offset=0 / threads=3 / nr=0 / decimate=1 / mbaff=0 / bframes=3 / b_pyramid=1 / b_adapt=1 / b_bias=0 / direct=3 / wpredb=1 / bime=1 / keyint=250 / keyint_min=25 / scenecut=40(pre) / rc=2pass / bitrate=5858 / ratetol=1.0 / rceq='blurCplx^(1-qComp)' / qcomp=0.60 / qpmin=10 / qpmax=51 / qpstep=4 / cplxblur=20.0 / qblur=0.5 / ip_ratio=1.40 / pb_ratio=1.30 / aq=1:0.3:15.0
Language : English
Audio #2
ID : 2
Format : AC-3
Format/Info : Audio Coding 3
Mode extension : CM (complete main)
Codec ID : A_AC3
Duration : 2h 28mn
Bit rate mode : Constant
Bit rate : 192 Kbps
Channel(s) : 2 channels
Channel positions : Front: L R
Sampling rate : 48.0 KHz
Bit depth : 16 bits
Stream size : 204 MiB (3%)
Language : Ukrainian
Audio #3
ID : 3
Format : AC-3
Format/Info : Audio Coding 3
Mode extension : CM (complete main)
Codec ID : A_AC3
Duration : 2h 28mn
Bit rate mode : Constant
Bit rate : 448 Kbps
Channel(s) : 6 channels
Channel positions : Front: L C R, Side: L R, LFE
Sampling rate : 48.0 KHz
Bit depth : 16 bits
Stream size : 477 MiB (7%)
Title : at 448 kbps
Language : English
Text #4
ID : 4
Format : UTF-8
Codec ID : S_TEXT/UTF8
Codec ID/Info : UTF-8 Plain Text
Text #5
ID : 5
Format : UTF-8
Codec ID : S_TEXT/UTF8
Codec ID/Info : UTF-8 Plain Text
Скріншоти


Джерело: &
Особиста оцінка: 10 - без зайвих вагань рекомендую всім!


Срібний реліз (на рейтинг впливає 50% завантаженого)
 Трекер:    Зареєстрований   

Завантажити / скачати фільм українською



відео для новачків



 Зареєстрований:   2012-09-19 08:58
 Розмір:   6.76 GB 
 Оцінка фільму:   9/10 (Голосів: 20)
   
Genek 
Свій


З нами з: 16.10.10
Востаннє: 26.11.16
Повідомлень: 69

2012-09-19 10:19  
Дійсно фільм вартий перегляду. Хотів дописати враження про спецефекти які були зроблені у 1968 році, без комп. графіки, але вище, в описі сюжету все вже сказано Happy
DеLight 
Відео Гуртом - фільмокрай
Відео Гуртом - фільмокрай


З нами з: 24.08.11
Востаннє: 17.11.16
Повідомлень: 664

2012-09-19 15:15  
Є ж 720p, чому саме вибрав? Happy
oleg.plavkov 
Відео Гуртом - фільмокрай
Відео Гуртом - фільмокрай


З нами з: 04.01.12
Востаннє: 06.12.16
Повідомлень: 304

2012-09-19 15:38  
Delight` написано:
Є ж 720p, чому саме вибрав?

ВDRip - http://toloka.to/t39838

DеLight 
Відео Гуртом - фільмокрай
Відео Гуртом - фільмокрай


З нами з: 24.08.11
Востаннє: 17.11.16
Повідомлень: 664

2012-09-19 15:46  
oleg.plavkov
Зрозуміло, 720p вже є, просто дехто не знає в якому розділі потрібно його розміщати.

Akc3nt57 
Свій


З нами з: 16.02.11
Востаннє: 22.11.16
Повідомлень: 130

2014-11-14 16:00  
Треба глянути звідки стільки шуму.
symba61 
Забанено
Забанено


З нами з: 01.03.10
Востаннє: 18.11.14
Повідомлень: 153

2014-11-14 20:46  
Akc3nt57 написано:
Треба глянути звідки стільки шуму.

Єдиний фільм Кубрика, який я не дивився до кінця.

BadMotherfucker 
Новенький


З нами з: 12.08.13
Востаннє: 06.07.16
Повідомлень: 1

2014-12-06 19:01  
не знаю як можна було не додивитись цей шедевр,час фільму пролетів непомітно,щей після фільму 20 хвилин лежав на місці і осмислював побачене
Akc3nt57 
Свій


З нами з: 16.02.11
Востаннє: 22.11.16
Повідомлень: 130

2015-03-10 00:42  
Я розумію що на той час фільм був бомба, але зараз дивитись важко. Сильно затягнуті сценки, люди смішно ходять по невагомості, ефект об'єктиву в кінці фільму,... я чекав чогось кращого. Розумію що в цій картині є багато філософського підтексту, але я вже занадто сильно розбалуваний сучасними спецефектами щоб адекватно сприйняти її. Ось якби подивився років 20 назад, але мені тоді було 5 років тож не поперло б). Тож висновок, не всім хто зараз подивиться фільм він сподобається, але я не жалію потраченого часу, вважаю що з класикою треба бути хоча б знайомим.
Dmytrek 
Новенький


З нами з: 22.06.12
Востаннє: 30.10.16
Повідомлень: 4

2016-05-10 15:56  
Вражаючий фільм, дуже сподобався! Перед переглядом був скептично налаштований через дату виходу, але спецефекти й ідеї для того часу дивовижні. Передивився багато науково-фантастичних фільмів, цей вирішив глянути від нудьги, а став один із улюблених. Тепер зрозуміло, з якого фільму родилося безліч наступних.
slikjay 
Новенький


З нами з: 16.02.10
Востаннє: 30.11.16
Повідомлень: 1

2016-05-20 19:26  
Цитата:
фільм випередив свій час на кілька світлових років

світловий рік - міра відстані а не часу
facepalm

deni_Al 
Новенький


З нами з: 05.08.09
Востаннє: 03.12.16
Повідомлень: 2

2016-06-15 22:32  
Ви вже вибачте, але цей фільм - маячня! Я, як шанувальник наукової фантастики, ледь досидів до кінця, чекаючи, що хоч щось там буде цікаве. Помилявся... Дивитися 10 хвилин, як астронавти їдять, ще 20, як корабель просто летить у космосі, це вже занадто. Так, згоден, для свого часу це був шедевр, але якби він вийшов у наш час - провалився би. Впевнений, що більшість людей, які хвалять цей фільм, нічого в ньому не зрозуміли, а роблять це лише через те, що "Всєм нравіца, значіт і я пахвалю"
Єдине, що тут сподобалося - музика. Це класика.
PS - напевно Кубрік - це не моє. Його бачення Сяйва С. Кінга - знущання над романом. Радий, що сам Кінг це визнав

Ваш часовий пояс: GMT + 2 Години

Нова тема   Відповісти