Завантажити та скачати торренти українською


Адвокат диявола / The Devil's Advocate (1997) 1080p 2xUkr/Eng | Sub Eng

Нові коментарі

Нова тема   Відповісти
Автор Повідомлення
ratbol 
Модератор HD


З нами з: 03.02.09
Востаннє: 05.12.16
Повідомлень: 1088

2012-09-17 20:22  
Адвокат диявола / The Devil's Advocate (1997) 1080p 2xUkr/Eng | Sub Eng


Жанр: драматично-містичний кримінальний триллер
Країна: США, Німеччина



Кіностудія / кінокомпанія: Warner Bros. Pictures
Режисер: Тейлор Гекфорд
Актори: Кіану Рівз, Аль Пачіно, Шарліз Терон, Джефрі Джонс, Джудіт Івей, Конні Нільсен та інші.

Сюжет:
Молодий адвокат зі штату Флорида Кевін Ломакс не програв жодної справи, хоча брався здавалося за такі судові процеси, які виграти було неможливо.
І от після чергової справи Ломаксу несподівано пропонують місце консультанта у великій нью-йоркській юридичній компанії "Мілтон Корпорейшн", яку очолює принадний товстосум Джон Мілтон. Кевін блискуче проходить випробувальний етап, вигравши декілька гучних справ і тісно зближується з головою компанії.
Тим часом молода дружина нової адвокатської легенди Нью-Йорка, Мері Енн, відчуває, що миттєвий злет карєри свого чоловіка пов'язаний з якоюсь нечистю, її починають переслідувати дивні видіння, яких Кевін помічати не хоче...


Тривалість: 02:23:55
Якість:
Відео:
кодек:
розмір кадру: 1920 х 800
бітрейт: 11 Мб/с

Аудіо #1:
мова: українська
переклад: багатоголосий закадровий | 1+1
кодек: 2.0
бітрейт: 192 кб/с

Аудіо #2:
мова: українська
переклад: багатоголосий закадровий | Інтер
кодек: 2.0
бітрейт: 192 кб/с

Аудіо #3:
мова: англійська
переклад: оригінал
кодек: 5.1
бітрейт: 1536 кб/с

Джерело озвучення:
&

Субтитри:
мова: англійська
тип: програмні (м'які)
формат: *.srt

Оригінальні розділи:
Збережено

MediaInfo
Код:
General
Unique ID                        : 223651908738915951541433783361204991932 (0xA841CA72EA3E570FAEA1D08637CD37BC)
Complete name                    : E:\MOVIES\movie releases\The Devil's Advocate (1997)\The Devil's Advocate [Unrated Director's Cut] (1997) [2xUkr, Eng. Sub - Eng] 1080p [Hurtom].mkv
Format                           : Matroska
Format version                   : Version 2
File size                        : 13.0 GiB
Duration                         : 2h 23mn
Overall bit rate                 : 12.9 Mbps
Movie name                       : The Devil's Advocate [Unrated Director's Cut] (1997) [Hurtom]
Encoded date                     : UTC 2012-09-18 17:22:40
Writing application              : mkvmerge v5.6.0 ('Kenya Kane') built on May 27 2012 16:44:04
Writing library                  : libebml v1.2.3 + libmatroska v1.3.0

Video
ID                               : 1
Format                           : AVC
Format/Info                      : Advanced Video Codec
Format profile                   : [email protected]
Format settings, CABAC           : Yes
Format settings, ReFrames        : 4 frames
Codec ID                         : V_MPEG4/ISO/AVC
Duration                         : 2h 23mn
Bit rate                         : 11.0 Mbps
Width                            : 1 920 pixels
Height                           : 800 pixels
Display aspect ratio             : 2.40:1
Frame rate                       : 23.976 fps
Color space                      : YUV
Chroma subsampling               : 4:2:0
Bit depth                        : 8 bits
Scan type                        : Progressive
Bits/(Pixel*Frame)               : 0.300
Stream size                      : 10.8 GiB (83%)
Title                            : Ріп від HDH
Writing library                  : core 125 r2200 999b753
Encoding settings                : cabac=1 / ref=4 / deblock=1:-3:-3 / analyse=0x3:0x133 / me=tesa / subme=11 / psy=1 / psy_rd=1.00:0.15 / mixed_ref=1 / me_range=24 / chroma_me=1 / trellis=2 / 8x8dct=1 / cqm=0 / deadzone=21,11 / fast_pskip=0 / chroma_qp_offset=-3 / threads=12 / lookahead_threads=2 / sliced_threads=0 / nr=0 / decimate=1 / interlaced=0 / bluray_compat=0 / constrained_intra=0 / bframes=11 / b_pyramid=2 / b_adapt=2 / b_bias=0 / direct=3 / weightb=1 / open_gop=0 / weightp=2 / keyint=240 / keyint_min=23 / scenecut=40 / intra_refresh=0 / rc_lookahead=120 / rc=2pass / mbtree=1 / bitrate=11033 / ratetol=1.0 / qcomp=0.60 / qpmin=0 / qpmax=69 / qpstep=4 / cplxblur=20.0 / qblur=0.5 / ip_ratio=1.40 / aq=1:1.00
Language                         : English
Default                          : Yes
Forced                           : No

Audio #1
ID                               : 2
Format                           : AC-3
Format/Info                      : Audio Coding 3
Mode extension                   : CM (complete main)
Codec ID                         : A_AC3
Duration                         : 2h 23mn
Bit rate mode                    : Constant
Bit rate                         : 192 Kbps
Channel(s)                       : 2 channels
Channel positions                : Front: L R
Sampling rate                    : 48.0 KHz
Bit depth                        : 16 bits
Compression mode                 : Lossy
Stream size                      : 198 MiB (1%)
Title                            : 2.0 [192 Kbps] — багатоголосий закадровий | 1+1
Language                         : Ukrainian
Default                          : Yes
Forced                           : No

Audio #2
ID                               : 3
Format                           : AC-3
Format/Info                      : Audio Coding 3
Mode extension                   : CM (complete main)
Codec ID                         : A_AC3
Duration                         : 2h 23mn
Bit rate mode                    : Constant
Bit rate                         : 192 Kbps
Channel(s)                       : 2 channels
Channel positions                : Front: L R
Sampling rate                    : 48.0 KHz
Bit depth                        : 16 bits
Compression mode                 : Lossy
Stream size                      : 198 MiB (1%)
Title                            : 2.0 [192 Kbps] — багатоголосий закадровий | Інтер
Language                         : Ukrainian
Default                          : No
Forced                           : No

Audio #3
ID                               : 4
Format                           :
Format/Info                      : Digital Theater Systems
Codec ID                         : A_DTS
Duration                         : 2h 23mn
Bit rate mode                    : Constant
Bit rate                         : 1 510 Kbps
Channel(s)                       : 6 channels
Channel positions                : Front: L C R, Side: L R, LFE
Sampling rate                    : 48.0 KHz
Bit depth                        : 24 bits
Compression mode                 : Lossy
Stream size                      : 1.52 GiB (12%)
Title                            : 5.1 [1536 Kbps] — оригінал
Language                         : English
Default                          : No
Forced                           : No

Text
ID                               : 5
Format                           : UTF-8
Codec ID                         : S_TEXT/UTF8
Codec ID/Info                    : UTF-8 Plain Text
Language                         : English
Default                          : No
Forced                           : No

Menu
00:00:00.000                     : en:00:00:00.000
00:03:25.205                     : en:00:03:25.205
00:04:57.506                     : en:00:04:57.506
00:09:07.213                     : en:00:09:07.213
00:12:06.225                     : en:00:12:06.225
00:14:58.856                     : en:00:14:58.856
00:18:13.592                     : en:00:18:13.592
00:20:52.585                     : en:00:20:52.585
00:26:20.621                     : en:00:26:20.621
00:30:09.016                     : en:00:30:09.016
00:33:45.482                     : en:00:33:45.482
00:36:10.960                     : en:00:36:10.960
00:38:31.851                     : en:00:38:31.851
00:41:35.785                     : en:00:41:35.785
00:46:58.858                     : en:00:46:58.858
00:49:17.121                     : en:00:49:17.121
00:53:22.658                     : en:00:53:22.658
00:56:24.339                     : en:00:56:24.339
00:58:35.971                     : en:00:58:35.971
01:03:40.316                     : en:01:03:40.316
01:06:08.590                     : en:01:06:08.590
01:10:25.012                     : en:01:10:25.012
01:12:54.287                     : en:01:12:54.287
01:14:30.675                     : en:01:14:30.675
01:17:15.297                     : en:01:17:15.297
01:19:17.378                     : en:01:19:17.378
01:22:14.388                     : en:01:22:14.388
01:25:59.988                     : en:01:25:59.988
01:28:50.033                     : en:01:28:50.033
01:33:36.152                     : en:01:33:36.152
01:38:52.635                     : en:01:38:52.635
01:43:14.355                     : en:01:43:14.355
01:45:40.960                     : en:01:45:40.960
01:48:28.377                     : en:01:48:28.377
01:53:21.253                     : en:01:53:21.253
01:55:40.350                     : en:01:55:40.350
01:56:59.137                     : en:01:56:59.137
02:01:48.134                     : en:02:01:48.134
02:05:55.798                     : en:02:05:55.798
02:09:59.792                     : en:02:09:59.792
02:12:23.853                     : en:02:12:23.853
02:13:40.095                     : en:02:13:40.095
02:16:36.647                     : en:02:16:36.647
log
Код:
-[NoImage] [info]: using SAR=1/1
-[NoImage] [info]: using cpu capabilities: MMX2 SSE2Fast SSSE3 FastShuffle SSE4.2 AVX
-[NoImage] [info]: profile High, level 4.1
-[NoImage]
-[NoImage] [info]: frame I:1478  Avg QP:15.63  size:186671
-[NoImage] [info]: frame P:40992 Avg QP:18.82  size: 93116
-[NoImage] [info]: frame B:164579 Avg QP:20.74  size: 47487
-[NoImage] [info]: consecutive B-frames:  1.5%  1.8%  4.6% 17.9% 17.6% 34.7%  9.8%  5.6%  3.1%  1.6%  1.0%  0.7%
-[NoImage] [info]: mb I  I16..4: 13.8% 56.5% 29.7%
-[NoImage] [info]: mb P  I16..4:  3.1% 26.9%  2.8%  P16..4: 25.5% 28.3%  6.9%  1.8%  0.1%    skip: 4.7%
-[NoImage] [info]: mb B  I16..4:  0.7%  7.1%  0.3%  B16..8: 33.6% 18.8%  3.1%  direct: 9.4%  skip:27.0%  L0:43.4% L1:42.1% BI:14.5%
-[NoImage] [info]: 8x8 transform intra:83.2% inter:52.4%
-[NoImage] [info]: direct mvs  spatial:99.5% temporal:0.5%
-[NoImage] [info]: coded y,uvDC,uvAC intra: 90.6% 92.0% 81.8% inter: 33.2% 38.2% 21.5%
-[NoImage] [info]: i16 v,h,dc,p: 33%  9% 11% 47%
-[NoImage] [info]: i8 v,h,dc,ddl,ddr,vr,hd,vl,hu:  9%  7% 12% 10% 12% 12% 11% 12% 14%
-[NoImage] [info]: i4 v,h,dc,ddl,ddr,vr,hd,vl,hu: 15% 11%  9%  7% 12% 12% 12%  9% 13%
-[NoImage] [info]: i8c dc,h,v,p: 61% 11% 12% 16%
-[NoImage] [info]: Weighted P-Frames: Y:4.0% UV:1.5%
-[NoImage] [info]: ref P L0: 60.3%  5.9% 23.1% 10.0%  0.7%  0.0%
-[NoImage] [info]: ref B L0: 84.8% 12.8%  2.4%
-[NoImage] [info]: ref B L1: 91.0%  9.0%
-[NoImage] [info]: kb/s:11031.76
-[NoImage] encoded 207049 frames, 2.79 fps, 11031.76 kb/s
Скріншоти
Source vs Encode








Робота над релізом:
ProgBassing — запис звуку з ТБ та синхронізація української доріжки №1;
xslim — запис звуку з ТБ для доріжки №2;
robotron005 — синхронізація української доріжки №2;
ratbol — відеоріп.


Джерело:
Особиста оцінка: 9


Срібний реліз (на рейтинг впливає 50% завантаженого)
 Трекер:    Зареєстрований   

Завантажити / скачати фільм українською



відео для новачків



 Зареєстрований:   2012-09-18 20:50
 Розмір:   13 GB 
 Оцінка фільму:   9.9/10 (Голосів: 18)
 Не тікаємо з роздачі!
   
Інші релізи
waldi-hurtom 
VIP


З нами з: 07.10.12
Востаннє: 05.12.16
Повідомлень: 611

2016-10-09 23:20  
агов! хтось роздає в якості?
P.S. Нарешті зкачав (за три дні) та подивився. Назва на слуху, але (мабуть, через елементи містики) фільм цілком раніше не дивився. Гарні актори. Цікавий сюжет, цікаві думки, але... чогось бракує. Особливо кінцівка змарнувала. 8 з 10. Але це класика, треба було подивитися. Дякую за реліз та фанату роздачи, що таки віддав мені фільм Happy
P.P.S. Це тільки в мене (через додатки до Файрфоксу) не показується інтегрована оцінка фільмів останнім часом, чи це якісь загальні проблеми на толоці? На щастя, оцінка IMDB ще показується.

Ваш часовий пояс: GMT + 2 Години

Нова тема   Відповісти