Завантажити та скачати торренти українською


Брати / Brothers (2009) 720p Ukr/Eng | Sub Eng

Нові коментарі

Нова тема   Відповісти
Автор Повідомлення
DеLight 
Відео Гуртом - фільмокрай
Відео Гуртом - фільмокрай


З нами з: 24.08.11
Востаннє: 17.11.16
Повідомлень: 664

2012-09-17 12:55  
Брати / Brothers (2009) 720p Ukr/Eng | Sub Eng

Брати / Brothers (2009) 720p Ukr/Eng | Sub Eng

«Якби ти знала, через що я пройшов, щоб повернутися до тебе.»


Альтернативні обкладинки








Жанр: драма, трилер, військовий
Країна: США



Кіностудія / кінокомпанія: Lionsgate, Michael De Luca Productions, Palomar Pictures (II), Relativity Media, Sighvatsson Films



Джим Шерідан / Jim Sheridan

Тобі Маґуайр / Tobey Maguire, Джейк Джілленхол / Jake Gyllenhaal, Наталі Портман / Natalie Portman, Сем Шепард / Sam Shepard, Майр Віннінґем / Mare Winningham, Бейлі Медісон / Bailee Madison, Тейлор Ґеар / Taylor Geare, Патрік Джон Флюґер / Patrick John Flueger, Кліфтон Коллінс мол. / Clifton Collins Jr., Карі Мулліґан / Carey Mulligan, Омід Абтахі / Omid Abtahi, Навід Неґабан / Navid Negahban, Етан Саплі / Ethan Suplee, Аррон Шівер / Arron Shiver, Рей Прювітт / Ray Prewitt

Два брати. Вони такі несхожі один на одного. Старший, Сем — хороший офіцер, люблячий чоловік і батько. А молодший, Томмі, кидається по життю, немов ходить по лезу бритви. Поїхавши добровольцем на війну до Афганістану, Сем просить Томмі потурбуватися про дітей і дружину Грейс. Проходить час, від Сема немає звісток. Його вважають зниклим безвісти. Томмі, як може, втішає Грейс. Непомітно між ними спалахує почуття... Але одного дня Сем повертається...



Тривалість: 01:44:38
Якість: 720p [джерело: Brothers 2009 Blu-ray 1080p AVC -HD MA 5.1-KTClub]

Відео:
кодек:
розмір кадру: 1280 x 534
бітрейт: 5 226 кб/с

Аудіо #1:
мова: українська
переклад: багатоголосий закадровий
кодек: 2.0
бітрейт: 192 кб/с

Джерело озвучення:

Озвучено на замовлення Aurora Distribution

Аудіо #2:
мова: англійська
переклад: оригінал
кодек: 5.1
бітрейт: 448 кб/с

Субтитри:
мова: англійська
тип: програмні (м'які)
формат: *.ass



->переглянути<-

Код:
General
Unique ID                      : 189377627881068876748621842928709634094 (0x8E78CDEF5785E2CA86C3A6DA2783882E)
Complete name                  : D:\Torrents\Brothers (2009) 720p [Ukr, Eng] [Hurtom & HDClub].mkv
Format                         : Matroska
Format version                 : Version 2
File size                      : 4.37 GiB
Duration                       : 1h 44mn
Overall bit rate               : 5 985 Kbps
Movie name                     : Brothers (2009) 720p [Ukr, Eng] [Hurtom & HDClub] by Delight
Encoded date                   : UTC 2012-09-17 08:44:41
Writing application            : mkvmerge v5.8.0 ('No Sleep / Pillow') built on Sep  2 2012 15:37:04
Writing library                : libebml v1.2.3 + libmatroska v1.3.0

Video
ID                             : 1
Format                         : AVC
Format/Info                    : Advanced Video Codec
Format profile                 : [email protected]
Format settings, CABAC         : Yes
Format settings, ReFrames      : 9 frames
Codec ID                       : V_MPEG4/ISO/AVC
Duration                       : 1h 44mn
Bit rate                       : 5 226 Kbps
Width                          : 1 280 pixels
Height                         : 534 pixels
Display aspect ratio           : 2.40:1
Frame rate mode                : Constant
Frame rate                     : 23.976 fps
Color space                    : YUV
Chroma subsampling             : 4:2:0
Bit depth                      : 8 bits
Scan type                      : Progressive
Bits/(Pixel*Frame)             : 0.319
Stream size                    : 3.82 GiB (87%)
Title                          : Brothers (2009) 720p
Language                       : English
Default                        : Yes
Forced                         : No

Audio #1
ID                             : 2
Format                         : AC-3
Format/Info                    : Audio Coding 3
Mode extension                 : CM (complete main)
Format settings, Endianness    : Big
Codec ID                       : A_AC3
Duration                       : 1h 44mn
Bit rate mode                  : Constant
Bit rate                       : 192 Kbps
Channel(s)                     : 2 channels
Channel positions              : Front: L R
Sampling rate                  : 48.0 KHz
Bit depth                      : 16 bits
Compression mode               : Lossy
Stream size                    : 144 MiB (3%)
Title                          : 2.0; 192 kbps; багатоголосий закадровий
Language                       : Ukrainian
Default                        : Yes
Forced                         : No

Audio #2
ID                             : 3
Format                         : AC-3
Format/Info                    : Audio Coding 3
Mode extension                 : CM (complete main)
Format settings, Endianness    : Big
Codec ID                       : A_AC3
Duration                       : 1h 44mn
Bit rate mode                  : Constant
Bit rate                       : 448 Kbps
Channel(s)                     : 6 channels
Channel positions              : Front: L C R, Side: L R, LFE
Sampling rate                  : 48.0 KHz
Bit depth                      : 16 bits
Compression mode               : Lossy
Stream size                    : 335 MiB (7%)
Title                          : 5.1; 448 kbps; original
Language                       : English
Default                        : No
Forced                         : No

Text
ID                             : 4
Format                         : ASS
Codec ID                       : S_TEXT/ASS
Codec ID/Info                  : Advanced Sub Station Alpha
Compression mode               : Lossless
Title                          : full
Language                       : English
Default                        : No
Forced                         : No




->переглянути<-

















Джерело: &
Подяка slavik_v_z за запис звуку та karvai0 за синхронізацію доріжки


 Трекер:    Зареєстрований   

Завантажити / скачати фільм українською



відео для новачків



 Зареєстрований:   2012-09-17 12:55
 Розмір:   4.37 GB 
 Оцінка фільму:   9.7/10 (Голосів: 13)
   
Інші релізи
   Брати / Brothers (2009) patriot2305  0 / 0   1.26 GB   2012-09-30 08:58 
   Брати / Brothers (2009) Ukr/Eng | Sub Eng karvai0  3 / 0   2 GB   2012-06-23 20:35 
gepard 
VIP


З нами з: 10.02.10
Востаннє: 08.12.16
Повідомлень: 305

2012-09-17 21:19  
Раніше дививсь цей фільм. Скачуйте не пожалієте.
8530 
VIP


З нами з: 27.01.09
Востаннє: 23.11.16
Повідомлень: 494

2012-09-18 05:22  
gepard
однозначно, хто не дивився. Подивіться, фільм заслуговує уваги..

DеLight 
Відео Гуртом - фільмокрай
Відео Гуртом - фільмокрай


З нами з: 24.08.11
Востаннє: 17.11.16
Повідомлень: 664

2012-10-02 11:03  
Фільм дуже хороший зі сторони драми, та й IMDb оправданий, 8/10.
Ваш часовий пояс: GMT + 2 Години

Нова тема   Відповісти