Завантажити та скачати торренти українською


Той, що біжить за вітром / The Kite Runner (2007) 720p Ukr/Eng | Sub Eng

Нові коментарі

Нова тема   Відповісти
Автор Повідомлення
chaoscor 
Свій


З нами з: 17.10.10
Востаннє: 03.12.16
Повідомлень: 73

2012-09-16 20:48  
Той, що біжить за вітром / The Kite Runner (2007) 720p Ukr/Eng | Sub Eng

Той, що біжить за вітром / The Kite Runner (2007) 720p Ukr/Eng | Sub Eng


Жанр: драма, мелодрама
Країна: США, Китай



Режисер: Марк Форстер
Актори: Халід Абдалла, Атосса Леоні, Шон Тоуб, Сайєд Джафар Масіхулла Гарібзада, Зекерія Ебрахімі, Ахмад Кхан Махмідзада, Мір Махмуд Шах Хашимі, Хомайон Ершаді, Набі Тана, Ельхам Ехсас

Сюжет:
Історія про дружбу, зраду, почуття провини і гріхи батьків, які лягають на дітей. Головні герої - Амір і Хасан, два хлопчики, що живуть пліч-о-пліч з народження. Але один - син аристократа, а інший - його слуга. Місце і час: Кабул до і після війни, вторгнення радянських військ і влади талібів. 12 років Амір і Хасан були нерозлучні, але жодного разу за цей час Амір не назвав Хасана своїм другом, а адже той був готовий віддати життя за господаря. Змагання із запуску повітряних зміїв - улюблена забава кабульських хлопчаків - стає не тільки точкою неповернення, після якої в житті Аміра і Хасана все змінюється. Польоти зміїв також є метафорою доль цих хлопчаків, яких віднесло вітрами в різні сторони світу.


Тривалість: 02:07:43
Якість:
Відео:
кодек:
розмір кадру: 1280 х 544
бітрейт: 5842 кб/с

Аудіо # 1:
мова: українська
переклад: багатоголосий закадровий
кодек: 2.0
бітрейт: 192 кб/с

доріжку взято з релізу karvai0

Джерело озвучення:


Аудіо # 2:
мова: англійська
переклад: оригінал
кодек: 5.1
бітрейт: 1510 кб/с

Субтитри:
мова: англійська
тип: програмні (м'які)
формат: *.srt
MediaInfo
G:\проекти\The Kite Runner (2007) 720p.mkv
General
Complete name : G:\проекти\The Kite Runner (2007) 720p.mkv
Format : Matroska
File size : 6.73 GiB
Duration : 2h 7mn
Overall bit rate : 7 544 Kbps
Movie name : vvatt
Encoded date : UTC 2012-09-16 16:45:43
Writing application : mkvmerge v5.2.1 ('A Far Off Place') built on Jan 2 2012 23:21:10
Writing library : libebml v1.2.3 + libmatroska v1.3.0
Video #1
ID : 1
Format : AVC
Format/Info : Advanced Video Codec
Format profile : [email protected]
Format settings, CABAC : Yes
Format settings, ReFrames : 5 frames
Muxing mode : Container [email protected]
Codec ID : V_MPEG4/ISO/AVC
Duration : 2h 7mn
Bit rate : 5 842 Kbps
Width : 1 280 pixels
Height : 544 pixels
Display aspect ratio : 2.35:1
Frame rate : 24.000 fps
Color space : YUV
Chroma subsampling : 4:2:0
Bit depth : 8 bits
Scan type : Progressive
Bits/(Pixel*Frame) : 0.350
Stream size : 5.08 GiB (75%)
Title : The Kite Runner
Writing library : core 60 r950 3c3dc3c
Encoding settings : cabac=1 / ref=5 / deblock=1:0:0 / analyse=0x3:0x133 / me=umh / subme=7 / brdo=1 / mixed_ref=1 / me_range=16 / chroma_me=1 / trellis=1 / 8x8dct=1 / cqm=0 / deadzone=10,6 / chroma_qp_offset=0 / threads=6 / nr=0 / decimate=1 / mbaff=0 / bframes=3 / b_pyramid=1 / b_adapt=1 / b_bias=0 / direct=1 / wpredb=1 / bime=1 / keyint=250 / keyint_min=25 / scenecut=40(pre) / rc=2pass / bitrate=5842 / ratetol=1.0 / rceq='blurCplx^(1-qComp)' / qcomp=1.00 / qpmin=10 / qpmax=51 / qpstep=4 / cplxblur=20.0 / qblur=0.5 / ip_ratio=1.40 / pb_ratio=1.30 / aq=2:1.10
Audio #2
ID : 2
Format : AC-3
Format/Info : Audio Coding 3
Mode extension : CM (complete main)
Codec ID : A_AC3
Duration : 2h 7mn
Bit rate mode : Constant
Bit rate : 192 Kbps
Channel(s) : 2 channels
Channel positions : Front: L R
Sampling rate : 48.0 KHz
Bit depth : 16 bits
Stream size : 175 MiB (3%)
Language : Ukrainian
Audio #3
ID : 3
Format :
Format/Info : Digital Theater Systems
Codec ID : A_DTS
Duration : 2h 7mn
Bit rate mode : Constant
Bit rate : 1 510 Kbps
Channel(s) : 6 channels
Channel positions : Front: L C R, Side: L R, LFE
Sampling rate : 48.0 KHz
Bit depth : 24 bits
Stream size : 1.35 GiB (20%)
Title : 5.1, 48 kHz 1536 kbps
Language : English
Text #4
ID : 4
Format : UTF-8
Codec ID : S_TEXT/UTF8
Codec ID/Info : UTF-8 Plain Text
Title : -
Language : English
Скріншоти


Джерело: &
Особиста оцінка: 10 - без зайвих вагань рекомендую всім!


 Трекер:    Зареєстрований   

Завантажити / скачати фільм українською



відео для новачків



 Зареєстрований:   2012-09-16 20:48
 Розмір:   6.73 GB 
 Оцінка фільму:   9.7/10 (Голосів: 7)
   
Інші релізи
taras1994 
Почесний оцифрувальник літератури


З нами з: 23.03.12
Востаннє: 30.11.16
Повідомлень: 5096

2012-09-16 22:05  
сюжет цікавий треба подивитися.
Nahintal 
Свій


З нами з: 01.08.08
Востаннє: 23.10.16
Повідомлень: 105

2012-09-17 08:44  
бачив цей фільм,сподобався сюжет
medved666 
Свій


З нами з: 11.04.15
Востаннє: 05.12.16
Повідомлень: 50

2016-09-30 12:08  
скріншоти не відображаються
Ваш часовий пояс: GMT + 2 Години

Нова тема   Відповісти