Завантажити та скачати торренти українською


Впусти мене / Lat den ratte komma in / Let the Right One In (2008) 1080p Ukr/Swe | sub Swe

Нові коментарі

Нова тема   Відповісти
Останній раз роздавалося KravetsS (2016-12-05)
Автор Повідомлення
Omikron 
VIP


З нами з: 03.01.12
Востаннє: 30.11.16
Повідомлень: 297

2012-09-16 18:04  
Впусти мене / Lat den ratte komma in / Let the Right One In (2008) 1080p Ukr/Swe | sub Swe




Жанр: жахи, драма
Країна: Швеція



Кіностудія / кінокомпанія: Canal+, EFTI, Fido Film AB, Filmpool Nord, Ljudligan
Режисер: Томас Альфредсон
Актори: Каре Хедебрант, Ліна Леандерсон, Пер Рагнар, Хенрік Даль, Карін Бергкуіст, Пітер Карлберг, Іка Норд, Мікаель Рахма, Карл-Роберт Ліндгрен, Андерс Т. Педу

Сюжет:
Дванадцятирічний Оскар живе в невеликому селі недалеко від Стокгольма. Вдень він піддається глузуванням і терпляче зносить принизливі стусани і ляпаси від однокласників, зате потім Оскар мріє про помсту.

Одного разу вночі Оскар знайомиться з дівчинкою на ім'я Елі. Вона його нова сусідка. Два ізгої миттєво стають друзями, Елі вчить Оскара хоробрості, а Оскар будить в ній жагу любові. Але Елі, на жаль, цього недостатньо - її мучить спрага крові.


Перекладено та озвучено студією "Омікрон" на замовлення HURTOM.COM


Тривалість: 01:54:33
Якість:
Відео:
кодек:
розмір кадру: 1916 х 816
бітрейт: 12.4 Мб/с

Аудіо # 1:
мова: українська
переклад: багатоголосий закадровий
кодек: 5.1
бітрейт: 1510 кб/с

Аудіо # 2:
мова: шведська
переклад: оригінал
кодек: 5.1
бітрейт: 1510 кб/с

Субтитри:
мова: шведська
тип: програмні (м'які)
формат: *.srt

Скріншоти:




Звіт MediaInfo:
General
Unique ID : 248837115783505830824331481925841263997 (0xBB3449068D910632A5693D51ACDB1D7D)
Complete name : Let the Right One In (2008) [ukr,swe] 1080p [Hurtom].mkv
Format : Matroska
Format version : Version 2
File size : 12.3 GiB
Duration : 1h 54mn
Overall bit rate : 15.4 Mbps
Movie name : Впусти мене / Lat den ratte komma in / Let the Right One In (2008) [Hurtom]
Encoded date : UTC 2012-09-16 12:54:29
Writing application : mkvmerge v5.8.0 ('No Sleep / Pillow') built on Sep 2 2012 15:37:04
Writing library : libebml v1.2.3 + libmatroska v1.3.0

Video
ID : 1
Format : AVC
Format/Info : Advanced Video Codec
Format profile : [email protected]
Format settings, CABAC : Yes
Format settings, ReFrames : 5 frames
Codec ID : V_MPEG4/ISO/AVC
Duration : 1h 54mn
Bit rate : 12.4 Mbps
Width : 1 916 pixels
Height : 816 pixels
Display aspect ratio : 2.35:1
Frame rate : 23.976 fps
Color space : YUV
Chroma subsampling : 4:2:0
Bit depth : 8 bits
Scan type : Progressive
Bits/(Pixel*Frame) : 0.330
Stream size : 9.65 GiB (78%)
Writing library : core 125 r2208 d9d2288
Encoding settings : cabac=1 / ref=5 / deblock=1:-3:-3 / analyse=0x3:0x133 / me=umh / subme=9 / psy=1 / psy_rd=1.00:0.25 / mixed_ref=1 / me_range=16 / chroma_me=1 / trellis=2 / 8x8dct=1 / cqm=0 / deadzone=6,6 / fast_pskip=1 / chroma_qp_offset=-4 / threads=12 / lookahead_threads=2 / sliced_threads=0 / nr=0 / decimate=0 / interlaced=0 / bluray_compat=0 / constrained_intra=0 / bframes=3 / b_pyramid=2 / b_adapt=2 / b_bias=0 / direct=3 / weightb=1 / open_gop=0 / weightp=2 / keyint=240 / keyint_min=23 / scenecut=40 / intra_refresh=0 / rc_lookahead=60 / rc=2pass / mbtree=1 / bitrate=12367 / ratetol=1.0 / qcomp=0.80 / qpmin=0 / qpmax=69 / qpstep=4 / cplxblur=20.0 / qblur=0.5 / ip_ratio=1.10 / aq=1:0.50
Default : Yes
Forced : No

Audio #1
ID : 2
Format :
Format/Info : Digital Theater Systems
Codec ID : A_DTS
Duration : 1h 54mn
Bit rate mode : Constant
Bit rate : 1 510 Kbps
Channel(s) : 6 channels
Channel positions : Front: L C R, Side: L R, LFE
Sampling rate : 48.0 KHz
Bit depth : 24 bits
Compression mode : Lossy
Stream size : 1.21 GiB (10%)
Title : Озвучено студією Омікрон на замовлення hurtom.com
Language : Ukrainian
Default : Yes
Forced : No

Audio #2
ID : 3
Format :
Format/Info : Digital Theater Systems
Codec ID : A_DTS
Duration : 1h 54mn
Bit rate mode : Constant
Bit rate : 1 510 Kbps
Channel(s) : 6 channels
Channel positions : Front: L C R, Side: L R, LFE
Sampling rate : 48.0 KHz
Bit depth : 24 bits
Compression mode : Lossy
Stream size : 1.21 GiB (10%)
Language : Swedish
Default : No
Forced : No

Text
ID : 4
Format : UTF-8
Codec ID : S_TEXT/UTF8
Codec ID/Info : UTF-8 Plain Text
Language : Swedish
Default : No
Forced : No
Про озвучення:

Українське озвучення створено студією "Омікрон" на замовлення Hurtom.com в рамках проекту "Хочеш кіно українською? Замовляй!"

Дякуємо користувачам, що фінансово допомогли проекту:
vanami, panama58, somnambula, Qualcuno, have got, Андрій Данилюк, Demetrios, Шейнога Станіслав, BMK12, giv4yk, Vasyl37, s.e.w.e.r.y.n, keloglan, vital_om, lov1k, Сергій, Тарас12 Байко, loiknazar, msl, star-ik, Sn00pY_UA, batiaruk, Mitrukhin, eng1, puryk, Belatrix, Breniak, Дмитро, myrf, starik, SergiYY, virtus8hur, Petro.Petrenko@, Andrlo, Kruk, toljanuch, Siaivo, Cicero75, Дмитро, Джерх, borkin, dtomilin, SirPent, smindmax, valiksvp, km1292, dtomilin, alis_3d, baton80, vilvil-vilvil, weksha, mihaluch2006, Marko, valiksvp, rudchenkos, skuline, nokiamen, Dmytrok, лісиче, SirPent, develvic, OLENOCHKAMIZINA, plumular, stefkivsky, oleh_oleh, гілка, oleks143, 737444, asu, Sling, elwolf, rst, Grygoriy, nemos, [email protected], Настя Мироненко, Cozzzac, 3ipbudax, Doctor Chd, Yevgeniy Protsyuk, stalker_cv, Dr.Cruncher, Віртуальний Дурник, Леонід Овод, Sensetivity, Hummer, Rost3, werfolomey, lionet, Beff, Морж, xxxcasperxxx, Sat0r, Snuryus, MisterR, М_а_м_а_Й

Детальніше про акцію озвучення
Детальніше про те, як обиралися фільми


За постер подяка somnambula.

Джерело:

Фільми, які було озвучено на замовлення Гуртом (допоможіть озвучити наступні):
М: Місто шукає вбивцю (1931)
Чарівник країни Оз (1939)
Великий диктатор (1940)
Громадянин Кейн (1941)
Подвійна страховка (1944)
Це дивовижне життя (1946)
Викрадачі велосипедів (1948)
Рашьомон (1950)
Сім самураїв (1954)
У випадку вбивства телефонуйте "М" (1954)
Леді та Блудько (1955) нове
12 розгніваних чоловіків (1957)
Сьома печатка (1957)
На північ через північний захід (1959)
Більярдист (1961)
Охоронець (1961)
Вбити пересмішника (1962)
Людина, що вбила Ліберті Веленса (1962)
Вісім з половиною (1963)
Велика прогулянка (1966)
Як Ґрінч украв Різдво! (1966)
Випускник (1967)
Самурай (1967)
Одного разу на Дикому Заході (1968)
Коти-аристократи (1970)
Механічний апельсин (1971)
Навколо світу за 80 днів (1972) нове
Китайський квартал (1974)
Пролітаючи над гніздом зозулі (1975)
Телемережа (1976)
Енні Голл (1977) нове
Мисливець на оленів (1978)
Буття Брайана за Монті Пайтоном (1979)
Коли я буду там (1979)
Мангеттен (1979)
Людина-слон (1980)
Приборкання норовливого (1980)
Скажений бик (1980)
Підводний човен (1981)
Ґанді (1982)
Король комедії (1982) нове
Різдвяна історія (1983)
Амадей (1984)
Барва пурпурова (1985)
Бразилія (1985)
Ран (1985)
Великий мишачий детектив (1986)
Небесний замок Лапута (1986)
Акіра (1988)
Мій сусід Тоторо (1988)
Останній з могікан (1992)
Скажені пси (1992)
Шосе в нікуди (1997) нове
Американська історія Ікс (1998)
Страх і огида в Лас-Вегасі (1998)
Шоу Трумена (1998)
Догма (1999)
Магнолія (1999) нове
Сука любов (2000) нове
Нічия земля (2001)
Родина Тененбаумів (2001)
Тріо з Бельвіля (2003)
Труднощі перекладу (2003)
Бункер (2004)
Готель Руанда (2004)
Тренер Картер (2005)
Льодовиковий період 2 (2006)
Лабіринт Фавна (2006)
Людина з планети Земля (2007)
В тіні місяця (2007)
Голод (2008)
Іп Мен (2008)
Викрадена (2008)
Впусти мене (2008)
Хвиля (2008)
Містер Ніхто (2009)
13 вбивць (2010)
Бетмен: Під червоною маскою (2010)
Іп Мен 2 (2010)
Котяче життя (2010)
Позичайка Аріетті (2010)
Чорний Лебідь (2010)
Місто (2010)
Сенна (2010)
50/50 (2011)
Адвокат на лінкольні (2011)
Дерево життя (2011)
Опівночі в Парижі (2011)
Воїн (2011)
Драйв (2011)
Життя за один день (2011)
Укриття (2011)
Хижа в лісі (2011)
Рейд: Спокута (2011)
Акт вбивства (2012)
Арго (2012)
Безпека не гарантується (2012)
Викрадена 2 (2012)
Збірка промінців надії (2012)
Ернест і Селестіна (2012)
Звірі дикого Півдня (2012)
Лінкольн (2012)
Любов (2012)
Надійні хлопці (2012)
Паркер (2012)
Переваги скромників (2012)
Пліч-о-пліч (2012)
Полювання (2012)
Розірване коло (2012)
Суддя Дредд (2012)
Тридцять хвилин по півночі (2012)
Що б ви зробили (2012)
Американська афера (2013)
Виклик (2013)
Вона (2013)
Ворог (2013)
Всередині Л'ювіна Девіса (2013)
Джо (2013)
Зловісні мерці (2013)
Іда (2013)
Лок (2013)
Небраска (2013)
Неймовірна подорож містера Співета (2013) нове
Побічна дія (2013)
Перед північчю (2013)
Снігобур (2013)
Стокер (2013)
TPB: за межами клавіатури (2013)
Гниле місто (2013)
Бердмен (2014)
Вероніка Марс (2014)
Вроджена вада (2014) нове
Дика (2014) нове
Інтерв'ю (2014) нове
Святий Вінсент (2014)
Пісня моря (2014) нове
Призначення (2014) нове
Шеф-кухар (2014)


Авторський реліз (завантажувати можна без реєстрації)
 Трекер:    Зареєстрований   

Завантажити / скачати фільм українською



відео для новачків



 Зареєстрований:   2012-09-16 19:27
 Розмір:   12.31 GB 
 Оцінка фільму:   9.5/10 (Голосів: 8)
   
Ваш часовий пояс: GMT + 2 Години

Нова тема   Відповісти