Завантажити та скачати торренти українською


Впусти мене / Lat den ratte komma in / Let the Right One In (2008) 720p Ukr/Swe | sub Swe

Нові коментарі

Нова тема   Відповісти
Автор Повідомлення
Omikron 
VIP


З нами з: 03.01.12
Востаннє: 30.11.16
Повідомлень: 297

2012-09-16 18:04  
Впусти мене / Lat den ratte komma in / Let the Right One In (2008) 720p Ukr/Swe | sub Swe




Жанр: жахи, драма
Країна: Швеція



Кіностудія / кінокомпанія: Canal+, EFTI, Fido Film AB, Filmpool Nord, Ljudligan
Режисер: Томас Альфредсон
Актори: Каре Хедебрант, Ліна Леандерсон, Пер Рагнар, Хенрік Даль, Карін Бергкуіст, Пітер Карлберг, Іка Норд, Мікаель Рахма, Карл-Роберт Ліндгрен, Андерс Т. Педу

Сюжет:
Дванадцятирічний Оскар живе в невеликому селі недалеко від Стокгольма. Вдень він піддається глузуванням і терпляче зносить принизливі стусани і ляпаси від однокласників, зате потім Оскар мріє про помсту.

Одного разу вночі Оскар знайомиться з дівчинкою на ім'я Елі. Вона його нова сусідка. Два ізгої миттєво стають друзями, Елі вчить Оскара хоробрості, а Оскар будить в ній жагу любові. Але Елі, на жаль, цього недостатньо - її мучить спрага крові.


Перекладено та озвучено студією "Омікрон" на замовлення HURTOM.COM


Тривалість: 01:54:33
Якість:
Відео:
кодек:
розмір кадру: 1280 х 544
бітрейт: 3 598 кб/с

Аудіо # 1:
мова: українська
переклад: багатоголосий закадровий
кодек: 5.1
бітрейт: 448 кб/с

Аудіо # 2:
мова: шведська
переклад: оригінал
кодек: 5.1
бітрейт: 448 кб/с

Субтитри:
мова: шведська
тип: програмні (м'які)
формат: *.srt

Звіт MediaInfo:
General
Unique ID : 199601649925720097450505036603579408579 (0x9629E123E778241FB3947F106B53A0C3)
Complete name : Let the Right One In (2008) [ukr,swe] 720p [Hurtom].mkv
Format : Matroska
Format version : Version 2
File size : 3.60 GiB
Duration : 1h 54mn
Overall bit rate : 4 493 Kbps
Movie name : Впусти мене / Lat den ratte komma in / Let the Right One In (2008) [Hurtom]
Encoded date : UTC 2012-09-16 13:48:18
Writing application : mkvmerge v5.8.0 ('No Sleep / Pillow') built on Sep 2 2012 15:37:04
Writing library : libebml v1.2.3 + libmatroska v1.3.0

Video
ID : 1
Format : AVC
Format/Info : Advanced Video Codec
Format profile : [email protected]
Format settings, CABAC : Yes
Format settings, ReFrames : 8 frames
Codec ID : V_MPEG4/ISO/AVC
Duration : 1h 54mn
Bit rate : 3 598 Kbps
Width : 1 280 pixels
Height : 544 pixels
Display aspect ratio : 2.35:1
Frame rate : 23.976 fps
Color space : YUV
Chroma subsampling : 4:2:0
Bit depth : 8 bits
Scan type : Progressive
Bits/(Pixel*Frame) : 0.216
Stream size : 2.81 GiB (78%)
Writing library : core 125 r2208 d9d2288
Encoding settings : cabac=1 / ref=8 / deblock=1:-2:-2 / analyse=0x3:0x133 / me=umh / subme=9 / psy=1 / psy_rd=1.00:0.25 / mixed_ref=1 / me_range=16 / chroma_me=1 / trellis=2 / 8x8dct=1 / cqm=0 / deadzone=6,6 / fast_pskip=1 / chroma_qp_offset=-4 / threads=12 / lookahead_threads=2 / sliced_threads=0 / nr=0 / decimate=0 / interlaced=0 / bluray_compat=0 / constrained_intra=0 / bframes=3 / b_pyramid=2 / b_adapt=2 / b_bias=0 / direct=3 / weightb=1 / open_gop=0 / weightp=2 / keyint=240 / keyint_min=23 / scenecut=40 / intra_refresh=0 / rc_lookahead=60 / rc=2pass / mbtree=1 / bitrate=3598 / ratetol=1.0 / qcomp=0.80 / qpmin=0 / qpmax=69 / qpstep=4 / cplxblur=20.0 / qblur=0.5 / ip_ratio=1.10 / aq=1:0.50
Default : Yes
Forced : No

Audio #1
ID : 2
Format : AC-3
Format/Info : Audio Coding 3
Mode extension : CM (complete main)
Format settings, Endianness : Big
Codec ID : A_AC3
Duration : 1h 54mn
Bit rate mode : Constant
Bit rate : 448 Kbps
Channel(s) : 6 channels
Channel positions : Front: L C R, Side: L R, LFE
Sampling rate : 48.0 KHz
Bit depth : 16 bits
Compression mode : Lossy
Stream size : 367 MiB (10%)
Title : Озвучено студією Омікрон на замовлення hurtom.com
Language : Ukrainian
Default : Yes
Forced : No

Audio #2
ID : 3
Format : AC-3
Format/Info : Audio Coding 3
Mode extension : CM (complete main)
Format settings, Endianness : Big
Codec ID : A_AC3
Duration : 1h 54mn
Bit rate mode : Constant
Bit rate : 448 Kbps
Channel(s) : 6 channels
Channel positions : Front: L C R, Side: L R, LFE
Sampling rate : 48.0 KHz
Bit depth : 16 bits
Compression mode : Lossy
Stream size : 367 MiB (10%)
Language : Swedish
Default : No
Forced : No

Text
ID : 4
Format : UTF-8
Codec ID : S_TEXT/UTF8
Codec ID/Info : UTF-8 Plain Text
Language : Swedish
Default : No
Forced : No
Про озвучення:

Українське озвучення створено студією "Омікрон" на замовлення Hurtom.com в рамках проекту "Хочеш кіно українською? Замовляй!"

Дякуємо користувачам, що фінансово допомогли проекту:
vanami, panama58, somnambula, Qualcuno, have got, Андрій Данилюк, Demetrios, Шейнога Станіслав, BMK12, giv4yk, Vasyl37, s.e.w.e.r.y.n, keloglan, vital_om, lov1k, Сергій, Тарас12 Байко, loiknazar, msl, star-ik, Sn00pY_UA, batiaruk, Mitrukhin, eng1, puryk, Belatrix, Breniak, Дмитро, myrf, starik, SergiYY, virtus8hur, Petro.Petrenko@, Andrlo, Kruk, toljanuch, Siaivo, Cicero75, Дмитро, Джерх, borkin, dtomilin, SirPent, smindmax, valiksvp, km1292, dtomilin, alis_3d, baton80, vilvil-vilvil, weksha, mihaluch2006, Marko, valiksvp, rudchenkos, skuline, nokiamen, Dmytrok, лісиче, SirPent, develvic, OLENOCHKAMIZINA, plumular, stefkivsky, oleh_oleh, гілка, oleks143, 737444, asu, Sling, elwolf, rst, Grygoriy, nemos, [email protected], Настя Мироненко, Cozzzac, 3ipbudax, Doctor Chd, Yevgeniy Protsyuk, stalker_cv, Dr.Cruncher, Віртуальний Дурник, Леонід Овод, Sensetivity, Hummer, Rost3, werfolomey, lionet, Beff, Морж, xxxcasperxxx, Sat0r, Snuryus, MisterR, М_а_м_а_Й

Детальніше про акцію озвучення
Детальніше про те, як обиралися фільми


За постер подяка somnambula.

Джерело:


Авторський реліз (завантажувати можна без реєстрації)
 Трекер:    Зареєстрований   

Завантажити / скачати фільм українською



відео для новачків



 Зареєстрований:   2012-09-16 19:37
 Розмір:   3.6 GB 
 Оцінка фільму:   9.2/10 (Голосів: 22)
   
DеLight 
Відео Гуртом - фільмокрай
Відео Гуртом - фільмокрай


З нами з: 24.08.11
Востаннє: 17.11.16
Повідомлень: 664

2012-09-17 23:33  
Хороший фільм, просто і смачно. Нагадав фільм теж шведського виробництва - "Frostbiten" (2006), близький по сюжету, але головна тема там інша, і ще дещо хороше там є:
початок фільму
Західна Україна, 1943 рік. Снігова буря. По лісі бродять голодні, обморожені і обірвані есесівці зі скандинавської дивізії "Вікінг". Оточені радянськими військами, у лісі вони натикаються на хатинку, де ще не охолола пічка. Куди пішли господарі? Хатинка заметена снігом. У підвалі есесівці знаходять маленький труну з написом «Марія» ...
Думаю всі здогадались, що в тій труні було, і не тільки у труні. Далі події розгортаються у теперішньому часі у Швеції...

Kirin 
VIP


З нами з: 28.07.08
Востаннє: 06.12.16
Повідомлень: 257

2012-09-21 17:46  
Мені дуже не сподобалось... Зовсім не розумію, що режисер хотів цим показати... Якщо та вампір так не хотіла вбивати, то чому просто все-одно це робила? Що за мораль...
мамбо 
Поважний учасник


З нами з: 23.12.11
Востаннє: 06.12.16
Повідомлень: 208

2012-10-19 21:28  
Фігня якась!!
Hako 
Частий відвідувач


З нами з: 01.02.12
Востаннє: 10.01.16
Повідомлень: 37

2014-04-12 21:16  
Який жах! І 5 хвилин не зміг переглянути. Далі поклацав така ж фігня.
Фільм - Впусти мене / Let Me In (2010) з Chloë Grace Moretz у ролі вампірки, виглядає проти цього просто шедевром. Хоча як на мене то так і є. Рекомендую переглянути його всім кому несподобався цей.

Ваш часовий пояс: GMT + 2 Години

Нова тема   Відповісти