Завантажити та скачати торренти українською


Цунамі / Haeundae (2009) AVC Ukr/Kor

Нові коментарі

Нова тема   Відповісти
Автор Повідомлення
4erkov 
Відео Гуртом - запис з ТБ
Відео Гуртом - запис з ТБ


З нами з: 09.10.10
Востаннє: 03.12.16
Повідомлень: 1846

2012-09-16 11:08  
Цунамі / Haeundae (2009) AVC Ukr/Kor

Цунамі / Haeundae (2009) AVC Ukr/Kor
Оригінальний постер

Жанр: екшн, драма, трилер
Країна: Південна Корея

Кіностудія / кінокомпанія: CJ Entertainment, Polygon Entertainment
Режисер: Юн Джк
Актори: Джі-вон Ха, Ніколь Діонне, Джеонг-хва Еом, Кіунг-гу Сол, Джунг-Хун Парк, Бо-геун Чеон, Ю-кіеонг Сеонг
Сюжет:
Бусан розташований на південно-східному краю корейського півострова. Популярний курорт Хаеундае щороку притягує на свої береги мільйони туристів. Масик - місцевий, який кілька років тому під час цунамі втратив в морі свого друга. З тих пір він не повертався до свого колишнього заняття, риболовлі. Тепер він веде просте життя, займається маленьким рибним ресторанчиком і ніяк не зважиться зробити пропозицію дівчині, яка дуже йому подобається. У той же час професор інституту океанології приходить до висновку, що з кожним роком небувале до того на корейських берегах цунамі стає все більшою реальністю. Про це говорять прилади. Він намагається переконати в цьому своє керівництво. І вимагає терміново евакуювати мільйони людей. Але можливо він помиляється...

Тривалість: 01:46:51
Якість: AVC [ріп від avproh]
Відео:
кодек:
розмір кадру: 1024 х 432
бітрейт: 2023 кб/с

Аудіо:
мова: українська
переклад: багатоголосий закадровий
кодек: 2.0
бітрейт: 192 кб/с

Аудіо # 2:
мова: корейська
переклад: оригінал
кодек: 5.1
бітрейт: 448 кб/с
Джерело озвучення:

Скріншоти







Media-Info
General
Unique ID : 202217068513950185719840767738944354561 (0x9821973B813EE160A3690C9233DEF901)
Complete name : D:\Релізи\Movies\Haeundae (2009) [ukr,kor] AVC [Hurtom].mkv
Format : Matroska
Format version : Version 2
File size : 1.99 GiB
Duration : 1h 46mn
Overall bit rate : 2 664 Kbps
Movie name : Hurtom com
Encoded date : UTC 2012-09-15 18:05:05
Writing application : mkvmerge v5.6.0 ('Kenya Kane') built on May 27 2012 16:44:04
Writing library : libebml v1.2.3 + libmatroska v1.3.0

Video
ID : 1
Format : AVC
Format/Info : Advanced Video Codec
Format profile : [email protected]
Format settings, CABAC : Yes
Format settings, ReFrames : 11 frames
Codec ID : V_MPEG4/ISO/AVC
Duration : 1h 46mn
Bit rate : 2 023 Kbps
Width : 1 024 pixels
Height : 432 pixels
Display aspect ratio : 2.40:1
Frame rate : 24.000 fps
Color space : YUV
Chroma subsampling : 4:2:0
Bit depth : 8 bits
Scan type : Progressive
Bits/(Pixel*Frame) : 0.191
Stream size : 1.47 GiB (74%)
Title : AVC
Writing library : core 114 r1913 5fd3dce
Encoding settings : cabac=1 / ref=11 / deblock=1:-2:-1 / analyse=0x3:0x113 / me=umh / subme=9 / psy=1 / psy_rd=1.00:0.10 / mixed_ref=1 / me_range=32 / chroma_me=1 / trellis=2 / 8x8dct=1 / cqm=0 / deadzone=21,11 / fast_pskip=1 / chroma_qp_offset=-3 / threads=9 / sliced_threads=0 / nr=0 / decimate=1 / interlaced=0 / constrained_intra=0 / bframes=10 / b_pyramid=2 / b_adapt=2 / b_bias=0 / direct=3 / weightb=1 / open_gop=0 / weightp=0 / keyint=250 / keyint_min=23 / scenecut=40 / intra_refresh=0 / rc_lookahead=80 / rc=2pass / mbtree=1 / bitrate=2023 / ratetol=1.0 / qcomp=0.60 / qpmin=0 / qpmax=69 / qpstep=4 / cplxblur=20.0 / qblur=0.5 / ip_ratio=1.40 / aq=2:0.90
Language : English
Default : Yes
Forced : No

Audio #1
ID : 2
Format : AC-3
Format/Info : Audio Coding 3
Mode extension : CM (complete main)
Format settings, Endianness : Big
Codec ID : A_AC3
Duration : 1h 46mn
Bit rate mode : Constant
Bit rate : 192 Kbps
Channel(s) : 2 channels
Channel positions : Front: L R
Sampling rate : 48.0 KHz
Bit depth : 16 bits
Compression mode : Lossy
Stream size : 147 MiB (7%)
Title : DVD
Language : Ukrainian
Default : Yes
Forced : No

Audio #2
ID : 3
Format : AC-3
Format/Info : Audio Coding 3
Mode extension : CM (complete main)
Format settings, Endianness : Big
Codec ID : A_AC3
Duration : 1h 46mn
Bit rate mode : Constant
Bit rate : 448 Kbps
Channel(s) : 6 channels
Channel positions : Front: L C R, Side: L R, LFE
Sampling rate : 48.0 KHz
Bit depth : 16 bits
Compression mode : Lossy
Stream size : 342 MiB (17%)
Title : Original
Language : Korean
Default : No
Forced : No

Джерело: Висловлюю подяку п. Tarasyk за надану доріжку і п. somnambula за постер. Зведення - 4erkov.
Особиста оцінка: 7 - друга половина фільму цікавіша


 Трекер:    Зареєстрований   

Завантажити / скачати фільм українською



відео для новачків



 Зареєстрований:   2012-09-16 11:08
 Розмір:   1.99 GB 
 Оцінка фільму:   9.9/10 (Голосів: 8)
   
Інші релізи
   Цунамі / Haeundae (2009) Ukr/Kor 4erkov  3 / 0   1.99 GB   2012-09-16 11:00 
4erkov 
Відео Гуртом - запис з ТБ
Відео Гуртом - запис з ТБ


З нами з: 09.10.10
Востаннє: 03.12.16
Повідомлень: 1846

2012-09-16 11:09  
Оскільки не знайшов 720p ріп на міжнародну версію фільму, викладаю AVC. Якщо хтось знайде такий ріп (тривалістю саме 01:46:51 ) - буду вдячний.
oleg.plavkov 
Відео Гуртом - фільмокрай
Відео Гуртом - фільмокрай


З нами з: 04.01.12
Востаннє: 26.11.16
Повідомлень: 304

2012-09-16 13:59  
Пошукаю!

Додано через 2 хвилини 13 секунд:
Посилання на інший сайт
посилання заборонено

Virake 
Localize Team
Localize Team


З нами з: 07.07.09
Востаннє: 04.12.16
Повідомлень: 4051

2012-09-16 14:06  
от тільки то ріп 1080p. скріншоти мають роздільну здатність 1920x816.
4erkov 
Відео Гуртом - запис з ТБ
Відео Гуртом - запис з ТБ


З нами з: 09.10.10
Востаннє: 03.12.16
Повідомлень: 1846

2012-09-16 14:26  
oleg.plavkov написано:
Посилання на інший сайт

Судячи з розміру/опису, то ріп режисерської версії від CHD, а інформація про тривалість хибна.

emigratte 
Свій


З нами з: 29.12.10
Востаннє: 30.11.16
Повідомлень: 78

2012-09-16 22:19  
Реально бомбезний фільм вийшов) Не голівуд ( це й на краще), та загалом 10 з10ти . Озвучка теж на високому рівні. І взагалі... дивитися як перелякані "кореянці" оруть одне на одного - окреме задоволення) Видно що в Кореї навчилися знімати фільми)
Ваш часовий пояс: GMT + 2 Години

Нова тема   Відповісти