Завантажити та скачати торренти українською


VA - Український автентичний фольклор. Застольні пісні [Золота колекція] (2008) [WV] | Folk

Нові коментарі

Нова тема   Відповісти
Автор Повідомлення
ssTAss 
Модератор музики


З нами з: 05.07.08
Востаннє: 09.12.16
Повідомлень: 10948

2012-09-15 21:31  
VA - Український автентичний фольклор. Застольні пісні [Золота колекція] (2008) [WV] | Folk

VA - Український автентичний фольклор. Застольні пісні [Золота колекція] (2008) [WV] | Folk


Стиль: Ethno, Folk
Країна: Україна
Видавець: Астра Рекордс
Виконавці:
inlay
Пісні:
    1. Ішли воли
    2. Ой, ти зоре, ти вечірняя
    3. Косив козак травку рано
    4. Гей, Іване, Іваночку
    5. Ой, у лісі у лісочку
    6. Ой, з-за гори орел воду носить
    7. Ой, піду я по садочку
    8. Ой, у Галі під вікном
    9. На тарільці білий сир
    10. Ой, у полі ячмінь
    11. Ой, сяду я край віконечка
    12. Ой, упала ожеледа
    13. Катя, Катерина
    14. Зійшов місяць ясний
    15. Ой, там, коло річки
    16. Ой, з-за гори буйний вітер віє
    17. Та червона та калина
    18. Ой, вийду я на гору
    19. Невістка
    20. Ой, у лузі на калині
    21. Гора за горою
    22. Де б, де б я на бесідоньку пішла
    23. Квасоля
    24. Ой, на горі жовта бляха
    25. Ой, летіла зозуленька
    26. Летіла зозуля
    27. Ішов козак горою
    28. А дід бабі сані ладить
    29. "Вальс". Український народний
    30. Ой, на горі там сосонька гуде
log
Exact Audio Copy V1.0 beta 3 from 29. August 2011

EAC extraction logfile from 26. July 2012, 1:02

VA / Український автентичний фольклор. Застольні пісні. Золотая коллекция

Used drive : TSSTcorpCDDVDW SH-222BB Adapter: 3 ID: 1

Read mode : Secure
Utilize accurate stream : Yes
Defeat audio cache : Yes
Make use of C2 pointers : No

Read offset correction : 6
Overread into Lead-In and Lead-Out : No
Fill up missing offset samples with silence : Yes
Delete leading and trailing silent blocks : No
Null samples used in CRC calculations : Yes
Used interface : Installed external ASPI interface

Used output format : User Defined Encoder
Selected bitrate : 1024 kBit/s
Quality : High
Add ID3 tag : No
Command line compressor : C:\Program Files (x86)\Exact Audio Copy\wavpack.exe
Additional command line options : -hm %source% %dest%

TOC of the extracted CD

Track | Start | Length | Start sector | End sector
---------------------------------------------------------
1 | 0:00.00 | 2:00.03 | 0 | 9002
2 | 2:00.03 | 2:22.19 | 9003 | 19671
3 | 4:22.22 | 1:50.14 | 19672 | 27935
4 | 6:12.36 | 1:52.09 | 27936 | 36344
5 | 8:04.45 | 3:01.36 | 36345 | 49955
6 | 11:06.06 | 2:53.05 | 49956 | 62935
7 | 13:59.11 | 0:32.17 | 62936 | 65352
8 | 14:31.28 | 1:44.03 | 65353 | 73155
9 | 16:15.31 | 1:27.04 | 73156 | 79684
10 | 17:42.35 | 3:15.23 | 79685 | 94332
11 | 20:57.58 | 1:23.05 | 94333 | 100562
12 | 22:20.63 | 3:28.06 | 100563 | 116168
13 | 25:48.69 | 3:14.06 | 116169 | 130724
14 | 29:03.00 | 3:29.03 | 130725 | 146402
15 | 32:32.03 | 3:41.05 | 146403 | 162982
16 | 36:13.08 | 2:47.01 | 162983 | 175508
17 | 39:00.09 | 2:32.33 | 175509 | 186941
18 | 41:32.42 | 1:08.04 | 186942 | 192045
19 | 42:40.46 | 3:52.12 | 192046 | 209457
20 | 46:32.58 | 2:09.01 | 209458 | 219133
21 | 48:41.59 | 4:32.28 | 219134 | 239561
22 | 53:14.12 | 1:23.05 | 239562 | 245791
23 | 54:37.17 | 2:44.10 | 245792 | 258101
24 | 57:21.27 | 1:53.23 | 258102 | 266599
25 | 59:14.50 | 2:36.00 | 266600 | 278299
26 | 61:50.50 | 4:29.10 | 278300 | 298484
27 | 66:19.60 | 4:23.06 | 298485 | 318215
28 | 70:42.66 | 0:56.04 | 318216 | 322419
29 | 71:38.70 | 2:00.00 | 322420 | 331419
30 | 73:38.70 | 1:40.39 | 331420 | 338958

Range status and errors

Selected range

Filename F:\NetLab\VA - Український автентичний фольклор. Застольні пісні. Золотая коллекция\VA - Український автентичний фольклор. Застольні пісні. Золотая коллекция.wav

Peak level 98.4 %
Extraction speed 7.9 X
Range quality 100.0 %
Test CRC 8EC5FD50
Copy CRC 8EC5FD50
Copy OK

No errors occurred

AccurateRip summary

Track 1 not present in database
Track 2 not present in database
Track 3 not present in database
Track 4 not present in database
Track 5 not present in database
Track 6 not present in database
Track 7 not present in database
Track 8 not present in database
Track 9 not present in database
Track 10 not present in database
Track 11 not present in database
Track 12 not present in database
Track 13 not present in database
Track 14 not present in database
Track 15 not present in database
Track 16 not present in database
Track 17 not present in database
Track 18 not present in database
Track 19 not present in database
Track 20 not present in database
Track 21 not present in database
Track 22 not present in database
Track 23 not present in database
Track 24 not present in database
Track 25 not present in database
Track 26 not present in database
Track 27 not present in database
Track 28 not present in database
Track 29 not present in database
Track 30 not present in database

None of the tracks are present in the AccurateRip database

End of status report
Тривалість: 01:15:19
Мова: українська
Аудіо-кодек: WavPack (high)
Бітрейт: 738 кб/с
Джерело: нетлаб
Додаткова інформація:
Якось так вже склалося чомусь, що українські застільні пісні – якщо казати про традиції – далеко не завжди бувають жвавими та веселими. Тобто, чимало в нас є пісень жартівливих, але ж і сумних, протяжних, таких, що всю душу вивертають – теж дуже багато. Ну а як застілля бувають різними, і не всяка гулянка вміє завершитися на веселій ноті – то й виходить так, що майже кожне свято досягає моменту, коли хтось заводить журливої пісні. І – все... Після цього вже не до жартів – з глибини підіймаються якісь такі хвилі тужливі, що їх просто необхідно виплеснути в пісні, інакше можна просто захлинутися. Парадоксально, але в таких ситуаціях навіть і легкі, несерйозні пісні співаються якось так, що сторонній слухач сприймає їх, як сумні. Втім, це значно кращий спосіб для вивільнення зайвих емоцій, ніж бійка, лайка і т.п., чи не так? Протяжною піснею серце очищається. Після цього в ньому стає порожньо, тихо і – світло... Здається, нова збірка з серії "Золота колекція" має на меті саме такий вплив на слухача – у всякому разі нам здається, що вона цілком здатна привести через сум до спокою і радості. Зрештою, до збірки потрапили дійсно гарні пісні у чудовому виконанні. До того ж, тішить і якість звучання – не віриться, що деяким з цих записів виповнилося вже 20 років.


Якщо Ви справді бажаєте підтримати українське - після прослуховування, якщо музика вам сподобалась,
придбайте ліцензійний диск.
Підтримаймо вітчизняних виконавців!


Срібний реліз (на рейтинг впливає 50% завантаженого)
 Трекер:    Зареєстрований   

Завантажити / скачати українську музику



відео для новачків



 Зареєстрований:   2012-09-15 21:31
 Розмір:   406 MB 
 Оцінка музики:   7.2/10 (Голосів: 10)
   
ssTAss 
Модератор музики


З нами з: 05.07.08
Востаннє: 09.12.16
Повідомлень: 10948

2012-09-15 21:32  
Ваш часовий пояс: GMT + 2 Години

Нова тема   Відповісти