Завантажити та скачати торренти українською


13 вбивць [Розширена версія] / 13 Assassins [Extended Cut] (2010) 1080p Ukr/Jpn | Sub Jpn/Eng

Нові коментарі

Нова тема   Відповісти
Автор Повідомлення
ratbol 
Модератор HD


З нами з: 03.02.09
Востаннє: 07.12.16
Повідомлень: 1088

2012-09-14 14:55  
13 вбивць [Розширена версія] / 13 Assassins [Extended Cut] (2010) 1080p Ukr/Jpn | Sub Jpn/Eng


Жанр: драма, екшн
Країна: Японія, Велика Британія



Режисер: Такаші Мііке
Актори: Коджі Якушо, Такаюкі Ямада, Юсуке Ісея, Ґоро Інаґакі, Мазачака Ічімура та інші.

Сюжет:
Група елітних самураїв таємно об'єднується для того, щоб вбити брата Сьоґуна - диктатора і садиста, імовірно майбутнього володаря Японії.


Тривалість: 02:21:51
Якість:
Відео:
кодек:
розмір кадру: 1920 х 802
бітрейт: 16.2 Мб/с

Аудіо #1:
мова: українська
переклад: багатоголосий закадровий | Цікава ідея
кодек: 5.1
бітрейт: 1536 кб/с

Аудіо #2:
мова: японська
переклад: оригінал
кодек: 5.1
бітрейт: 1536 кб/с

Джерело озвучення:
ТО "Цікава ідея" на замовлення Hurtom.com

Субтитри #1:
мова: японська
тип: програмні (м'які)
формат: *.srt

Субтитри #2:
мова: англійська
тип: програмні (м'які)
формат: *.srt

Оригінальні розділи:
Збережено

Інформація про українську доріжку
Українське озвучення створено студією ТО "Цікава ідея" на замовлення Hurtom.com в рамках проекту "Хочеш кіно українською? Замовляй!"

Дякуємо користувачам, що фінансово допомогли проекту:
vanami, panama58, somnambula, Qualcuno, have got, Андрій Данилюк, Demetrios, Шейнога Станіслав, BMK12, giv4yk, Vasyl37, s.e.w.e.r.y.n, keloglan, vital_om, lov1k, Сергій, Тарас12 Байко, loiknazar, msl, star-ik, Sn00pY_UA, batiaruk, Mitrukhin, eng1, puryk, Belatrix, Breniak, Дмитро, myrf, starik, SergiYY, virtus8hur, Petro.Petrenko@, Andrlo, Kruk, toljanuch, Siaivo, Cicero75, Дмитро, Джерх, borkin, dtomilin, SirPent, smindmax, valiksvp, km1292, dtomilin, alis_3d, baton80, vilvil-vilvil, weksha, mihaluch2006, Marko, valiksvp, rudchenkos, skuline, nokiamen, Dmytrok, лісиче, SirPent, develvic, OLENOCHKAMIZINA, plumular, stefkivsky, oleh_oleh, гілка, oleks143, 737444, asu, Sling, elwolf, rst, Grygoriy, nemos, [email protected], Настя Мироненко, Cozzzac, 3ipbudax, Doctor Chd, Yevgeniy Protsyuk, stalker_cv, Dr.Cruncher, Віртуальний Дурник, Леонід Овод, Sensetivity, Hummer, Rost3, werfolomey, lionet, Beff, Морж, xxxcasperxxx, Sat0r, Snuryus, MisterR, М_а_м_а_Й

Детальніше про акцію озвучення
Детальніше про те, як обиралися фільми
MediaInfo
Код:
General
Unique ID                        : 171392272169228692263898484994043349986 (0x80F0F36F8A75D3B680241882C6350BE2)
Complete name                    : E:\MOVIES\movie releases\13 Assassins [Extended Cut] (2010)\13 Assassins [Extended Cut] (2010) 1080p [Hurtom].mkv
Format                           : Matroska
Format version                   : Version 2
File size                        : 19.4 GiB
Duration                         : 2h 21mn
Overall bit rate                 : 19.6 Mbps
Movie name                       : 13 Assassins [Extended Cut] (2010) [Hurtom]
Encoded date                     : UTC 2012-09-15 10:21:11
Writing application              : mkvmerge v5.6.0 ('Kenya Kane') built on May 27 2012 16:44:04
Writing library                  : libebml v1.2.3 + libmatroska v1.3.0

Video
ID                               : 1
Format                           : AVC
Format/Info                      : Advanced Video Codec
Format profile                   : [email protected]
Format settings, CABAC           : Yes
Format settings, ReFrames        : 5 frames
Codec ID                         : V_MPEG4/ISO/AVC
Duration                         : 2h 21mn
Bit rate                         : 16.2 Mbps
Width                            : 1 920 pixels
Height                           : 802 pixels
Display aspect ratio             : 2.40:1
Frame rate                       : 23.976 fps
Color space                      : YUV
Chroma subsampling               : 4:2:0
Bit depth                        : 8 bits
Scan type                        : Progressive
Bits/(Pixel*Frame)               : 0.438
Stream size                      : 16.0 GiB (83%)
Title                            : Ріп від EbP
Writing library                  : core 116 r2019 9cc407d
Encoding settings                : cabac=1 / ref=5 / deblock=1:-3:-3 / analyse=0x3:0x113 / me=tesa / subme=10 / psy=1 / psy_rd=1.05:0.00 / mixed_ref=1 / me_range=16 / chroma_me=1 / trellis=2 / 8x8dct=1 / cqm=0 / deadzone=21,11 / fast_pskip=0 / chroma_qp_offset=-2 / threads=12 / sliced_threads=0 / nr=0 / decimate=0 / interlaced=0 / bluray_compat=0 / constrained_intra=0 / bframes=7 / b_pyramid=2 / b_adapt=2 / b_bias=0 / direct=3 / weightb=1 / open_gop=0 / weightp=2 / keyint=250 / keyint_min=23 / scenecut=40 / intra_refresh=0 / rc=crf / mbtree=0 / crf=16.4 / qcomp=0.60 / qpmin=0 / qpmax=69 / qpstep=4 / ip_ratio=1.40 / pb_ratio=1.30 / aq=1:0.60
Language                         : Japanese
Default                          : Yes
Forced                           : No
Matrix coefficients              : BT.709-5, BT.1361, IEC 61966-2-4 709, SMPTE RP177

Audio #1
ID                               : 2
Format                           :
Format/Info                      : Digital Theater Systems
Codec ID                         : A_DTS
Duration                         : 2h 21mn
Bit rate mode                    : Constant
Bit rate                         : 1 510 Kbps
Channel(s)                       : 6 channels
Channel positions                : Front: L C R, Side: L R, LFE
Sampling rate                    : 48.0 KHz
Bit depth                        : 24 bits
Compression mode                 : Lossy
Stream size                      : 1.50 GiB (8%)
Title                            : 5.1 [1536 Kbps] — багатоголосий закадровий | Цікава ідея
Language                         : Ukrainian
Default                          : Yes
Forced                           : No

Audio #2
ID                               : 3
Format                           :
Format/Info                      : Digital Theater Systems
Codec ID                         : A_DTS
Duration                         : 2h 21mn
Bit rate mode                    : Constant
Bit rate                         : 1 510 Kbps
Channel(s)                       : 6 channels
Channel positions                : Front: L C R, Side: L R, LFE
Sampling rate                    : 48.0 KHz
Bit depth                        : 24 bits
Compression mode                 : Lossy
Stream size                      : 1.50 GiB (8%)
Title                            : 5.1 [1536 Kbps] — оригінал
Language                         : Japanese
Default                          : No
Forced                           : No

Text #1
ID                               : 4
Format                           : UTF-8
Codec ID                         : S_TEXT/UTF8
Codec ID/Info                    : UTF-8 Plain Text
Language                         : Japanese
Default                          : No
Forced                           : No

Text #2
ID                               : 5
Format                           : UTF-8
Codec ID                         : S_TEXT/UTF8
Codec ID/Info                    : UTF-8 Plain Text
Language                         : English
Default                          : No
Forced                           : No

Menu
00:00:00.000                     : en:00:00:00.000
00:04:58.298                     : en:00:04:58.298
00:17:25.378                     : en:00:17:25.378
00:23:08.345                     : en:00:23:08.345
00:30:00.882                     : en:00:30:00.882
00:38:51.788                     : en:00:38:51.788
00:44:20.324                     : en:00:44:20.324
00:51:23.539                     : en:00:51:23.539
00:56:03.026                     : en:00:56:03.026
01:00:10.899                     : en:01:00:10.899
01:07:17.659                     : en:01:07:17.659
01:14:52.530                     : en:01:14:52.530
01:28:42.442                     : en:01:28:42.442
01:36:44.882                     : en:01:36:44.882
01:59:36.669                     : en:01:59:36.669
02:11:10.696                     : en:02:11:10.696


Цитата:
1. Порівняно з міжнародною версією, розширена японська містить додаткових 16 хвилин доповнених сцен.
2. Ріп від EbP.
3. За постер подяка somnambula


Джерело:


Авторський реліз (завантажувати можна без реєстрації)
 Трекер:    Зареєстрований   

Завантажити / скачати фільм українською



відео для новачків



 Зареєстрований:   2012-09-15 20:01
 Розмір:   19.4 GB 
 Оцінка фільму:   9.4/10 (Голосів: 5)
 Не тікаємо з роздачі!
   
bot 
робот


З нами з: 30.09.07
Востаннє: 26.05.05
Повідомлень: 16030

2012-09-15 20:01  
Тему перенесено з Анонси релізів від Відео Гуртом до форуму Фільми в HD


ratbol

Devil_guy 
Новенький


З нами з: 03.03.09
Востаннє: 02.07.16
Повідомлень: 10

2012-09-15 21:29  
Сідери, будьласка, встаньте на роздачу!
olyx 
Відео Гуртом - підтримка та поширення
Відео Гуртом - підтримка та поширення


З нами з: 25.01.10
Востаннє: 05.10.16
Повідомлень: 231

2012-09-15 21:44  
Наступний реліз буде в Blu-Ray???
fyfufrb 
Свій


З нами з: 07.10.09
Востаннє: 07.12.16
Повідомлень: 93

2012-10-08 20:57  
Страшно нудний спочатку але пізніше виправився ))))
Ваш часовий пояс: GMT + 2 Години

Нова тема   Відповісти