Завантажити та скачати торренти українською


Морський бій / Battleship (2012) 720p Ukr/Eng | Sub Ukr/Eng | Line

Нові коментарі

Нова тема   Відповісти
Автор Повідомлення
Zeus62 
Відео Гуртом - команда HD
Відео Гуртом - команда HD


З нами з: 29.12.08
Востаннє: 16.11.16
Повідомлень: 330

2012-09-14 12:02  
Морський бій / Battleship (2012) 720p Ukr/Eng | Sub Ukr/Eng | Line

Морський бій / Battleship (2012) 720p Ukr/Eng | Sub Ukr/Eng | Line


Жанр: екшн, фантастика, триллер
Країна: США



Кіностудія / кінокомпанія: Battleship Delta Productions, Film 44, Hasbro, Ponysound, Stuber Productions; мейджор – Universal Pictures International
Режисер: Пітер Берг
Актори: Тейлор Кітч, Лайам Нісон, Бруклін Декер, Александр Скарсгаард, Ріанна

Сюжет:
Ми надсилаємо сигнали в космос і чекаємо відповіді. Але чи впевнені ми, що хочемо її отримати? Що якщо прибульці потенційно небезпечні? У 2009 році на конференції у Вашингтоні астронавт Едгар Мітчелл, який побував на Місяці, зробив сенсаційну заяву про існування позаземного життя. Тепер ми знаємо, контакт не просто можливий, він неминучий!


Тривалість: 02:11:14
Якість:
Відео:
кодек:
розмір кадру: 1280 х 536
бітрейт: 3736 кб/с

Аудіо # 1:
мова: українська
переклад: професійний дубльований | Le Doyen | Line
кодек: 5.1
бітрейт: 448 кб/с

Аудіо # 2:
мова: англійська
переклад: оригінал
кодек: 5.1
бітрейт: 384 кб/с

Субтитри # 1:
мова: українська (Forced)
тип: програмні (м'які)
формат: *.srt

Субтитри # 2:
мова: українська (Full)
тип: програмні (м'які)
формат: *.srt

Субтитри # 3:
мова: англійська (SDH)
тип: пререндерні
формат: *.pgs
MediaInfo:
Format : Matroska
Format version : Version 2
File size : 4.20 GiB
Duration : 2h 11mn
Overall bit rate : 4 579 Kbps
Encoded date : UTC 2012-09-14 09:43:01
Writing application : mkvmerge v5.8.0 ('No Sleep / Pillow') built on Sep 3 2012 05:05:18
Writing library : libebml v1.2.2 + libmatroska v1.3.0

Video
ID : 1
Format : AVC
Format/Info : Advanced Video Codec
Format profile : [email protected]
Format settings, CABAC : Yes
Format settings, ReFrames : 9 frames
Codec ID : V_MPEG4/ISO/AVC
Duration : 2h 11mn
Bit rate : 3 736 Kbps
Width : 1 280 pixels
Height : 536 pixels
Display aspect ratio : 2.40:1
Frame rate mode : Constant
Frame rate : 23.976 fps
Color space : YUV
Chroma subsampling : 4:2:0
Bit depth : 8 bits
Scan type : Progressive
Bits/(Pixel*Frame) : 0.227
Stream size : 3.35 GiB (80%)
Title : For Hurtom by Zeus62
Writing library : core 112
Encoding settings : cabac=1 / ref=9 / deblock=1:-3:-3 / analyse=0x3:0x113 / me=umh / subme=10 / psy=1 / psy_rd=1,00:0,00 / mixed_ref=1 / me_range=64 / chroma_me=1 / trellis=2 / 8x8dct=1 / cqm=0 / deadzone=21,11 / fast_pskip=1 / chroma_qp_offset=-2 / threads=9 / sliced_threads=0 / nr=0 / decimate=1 / interlaced=0 / constrained_intra=0 / bframes=9 / b_pyramid=2 / b_adapt=2 / b_bias=0 / direct=1 / weightb=1 / open_gop=0 / weightp=2 / keyint=240 / keyint_min=23 / scenecut=40 / intra_refresh=0 / rc_lookahead=50 / rc=2pass / mbtree=1 / bitrate=3736 / ratetol=1,0 / qcomp=0,60 / qpmin=3 / qpmax=51 / qpstep=4 / cplxblur=20,0 / qblur=0,5 / ip_ratio=1,40 / aq=1:1,00
Language : Ukrainian
Default : Yes
Forced : No
Color primaries : BT.709
Transfer characteristics : BT.709
Matrix coefficients : BT.709

Audio #1
ID : 2
Format : AC-3
Format/Info : Audio Coding 3
Mode extension : CM (complete main)
Format settings, Endianness : Big
Codec ID : A_AC3
Duration : 2h 11mn
Bit rate mode : Constant
Bit rate : 448 Kbps
Channel(s) : 6 channels
Channel positions : Front: L C R, Side: L R, LFE
Sampling rate : 48.0 KHz
Bit depth : 16 bits
Compression mode : Lossy
Stream size : 421 MiB (10%)
Title : ukr 5.1 448 kb/s by Zeus62
Language : Ukrainian
Default : Yes
Forced : No

Audio #2
ID : 3
Format : AC-3
Format/Info : Audio Coding 3
Mode extension : CM (complete main)
Format settings, Endianness : Big
Codec ID : A_AC3
Duration : 2h 11mn
Bit rate mode : Constant
Bit rate : 384 Kbps
Channel(s) : 6 channels
Channel positions : Front: L C R, Side: L R, LFE
Sampling rate : 48.0 KHz
Bit depth : 16 bits
Compression mode : Lossy
Stream size : 360 MiB (8%)
Language : English
Default : No
Forced : No

Text #1
ID : 4
Format : UTF-8
Codec ID : S_TEXT/UTF8
Codec ID/Info : UTF-8 Plain Text
Title : Forced
Language : Ukrainian
Default : Yes
Forced : No

Text #2
ID : 5
Format : UTF-8
Codec ID : S_TEXT/UTF8
Codec ID/Info : UTF-8 Plain Text
Title : Full
Language : Ukrainian
Default : No
Forced : No

Text #3
ID : 6
Format : PGS
Muxing mode : zlib
Codec ID : S_HDMV/PGS
Codec ID/Info : The same subtitle format used on BDs/HD-DVDs
Title : SDH
Language : English
Default : No
Forced : No
log:
[info]: frame I:1723 Avg QP:16,82 size:113029 PSNR Mean Y:46,38 U:48,80 V:48,80 Avg:47,02 Global:46,65
[info]: frame P:50321 Avg QP:20,43 size: 32409 PSNR Mean Y:44,72 U:47,76 V:47,54 Avg:45,34 Global:44,55
[info]: frame B:136764 Avg QP:23,32 size: 13541 PSNR Mean Y:43,04 U:46,45 V:46,41 Avg:43,85 Global:43,32
[info]: consecutive B-frames: 4,3% 7,4% 12,6% 22,0% 16,5% 30,1% 3,4% 1,2% 1,0% 1,5%
[info]: mb I I16..4: 7,4% 76,0% 16,6%
[info]: mb P I16..4: 3,0% 15,6% 1,9% P16..4: 38,1% 20,7% 11,1% 0,0% 0,0% skip: 9,6%
[info]: mb B I16..4: 0,2% 2,0% 0,3% B16..8: 42,5% 11,1% 2,9% direct: 7,4% skip:33,7% L0:43,8% L1:46,0% BI:10,2%
[info]: 8x8 transform intra:77,3% inter:72,4%
[info]: coded y,uvDC,uvAC intra: 82,5% 84,3% 57,6% inter: 29,4% 28,5% 5,9%
[info]: i16 v,h,dc,p: 22% 19% 8% 51%
[info]: i8 v,h,dc,ddl,ddr,vr,hd,vl,hu: 9% 8% 4% 10% 15% 13% 15% 11% 13%
[info]: i4 v,h,dc,ddl,ddr,vr,hd,vl,hu: 8% 9% 3% 10% 16% 13% 16% 11% 14%
[info]: i8c dc,h,v,p: 39% 24% 16% 22%
[info]: Weighted P-Frames: Y:5,0% UV:3,7%
[info]: ref P L0: 47,9% 11,0% 17,3% 6,9% 5,4% 3,6% 3,2% 2,1% 2,0% 0,6% 0,0%
[info]: ref B L0: 75,8% 11,8% 5,3% 2,7% 1,8% 1,5% 0,8% 0,3%
[info]: ref B L1: 92,8% 7,2%
[info]: SSIM Mean Y:0,9722383 (15,566db)
[info]: PSNR Mean Y:43,520 U:46,818 V:46,734 Avg:44,273 Global:43,636 kb/s:3735,99
Скріншоти:
Original vs Encode






Джерело: +
Подяка karvai0 за постер, skiff - за українську доріжку в 2.0, Gelios та xfsthe- за субтитри. В 5.1 доріжку перероблено мною.
Особиста оцінка: 10 - без зайвих вагань рекомендую всім!


 Трекер:    Зареєстрований   

Завантажити / скачати фільм українською



відео для новачків



 Зареєстрований:   2012-09-14 12:02
 Розмір:   4.2 GB 
 Оцінка фільму:   9.4/10 (Голосів: 41)
   
Інші релізи
   Морський бій / Battleship (2012) 2xUkr/Eng | Sub Ukr/Eng Gelios  6 / 0   2.18 GB   2016-02-25 20:22 
   Морський бій / Battleship (2012) 720p-mini (60fps) Drool  6 / 1   6.43 GB   2015-05-06 08:12 
   Морський бій / Battleship (2012) Ukr/Eng antik_2008  1 / 0   2.54 GB   2012-11-22 15:53 
   Морський бій / Battleship (2012) Skiff  12 / 0   2.12 GB   2012-11-22 15:52 
   Морський бій / Battleship (2012) 720p Ukr/Eng | Sub Ukr/Eng 11FrYkT  5 / 0   5.98 GB   2012-09-11 20:38 
   Морський бій /Лінкор / Battleship (2012) Ukr / Eng | sub Ukr / Eng patriot2305  3 / 0   1.63 GB   2012-08-17 17:37 
trofum911 
Свій


З нами з: 31.01.12
Востаннє: 01.12.16
Повідомлень: 148

2012-09-19 20:07  
Нарешті найшов з 6 канальним звуком, дякую
braveboy 
Відео Гуртом - команда HD
Відео Гуртом - команда HD


З нами з: 15.06.10
Востаннє: 29.10.16
Повідомлень: 958

2012-09-19 20:20  
Zeus62
бітрейту трохи замало треба було не додавати оригінальну дорогу

The_Marlboro 
Відео Гуртом - субтитрування
Відео Гуртом - субтитрування


З нами з: 23.05.10
Востаннє: 08.12.16
Повідомлень: 2854

2012-09-19 20:24  
braveboy написано:
треба було не додавати оригінальну дорогу

Ага, повні укр саби і без оригінальної доріжки...

braveboy 
Відео Гуртом - команда HD
Відео Гуртом - команда HD


З нами з: 15.06.10
Востаннє: 29.10.16
Повідомлень: 958

2012-09-19 20:26  
TheMarlboro написано:
Ага, повні укр саби і без оригінальної доріжки...

укр. саби саби для людей з вадами слуху

taras1994 
Почесний оцифрувальник літератури


З нами з: 23.03.12
Востаннє: 30.11.16
Повідомлень: 5096

2012-09-19 23:20  
О так, поки гриземося тут на землі, нас знищать прибульці.
Drool 
VIP


З нами з: 17.04.10
Востаннє: 08.12.16
Повідомлень: 1270

2012-09-20 08:53  
А доріжку окремо можна?
Zeus62 
Відео Гуртом - команда HD
Відео Гуртом - команда HD


З нами з: 29.12.08
Востаннє: 16.11.16
Повідомлень: 330

2012-09-21 10:10  
Цитата:
бітрейту трохи замало треба було не додавати оригінальну дорогу

Та не зважай на цифри. Якість картинки класна. Я теж за те, щоб не додавати ці оригінальні дороги, але це потрібно. Якщо вже релізити, то по нормальному.
Цитата:
А доріжку окремо можна?

Можна. Ось посилання:Тиць

braveboy 
Відео Гуртом - команда HD
Відео Гуртом - команда HD


З нами з: 15.06.10
Востаннє: 29.10.16
Повідомлень: 958

2012-09-21 18:47  
Zeus62 написано:
Та не зважай на цифри. Якість картинки класна. Я теж за те, щоб не додавати ці оригінальні дороги, але це потрібно. Якщо вже релізити, то по нормальному.


бітрейту не вистачило
Zeus62 написано:
[info]: frame B:136764 Avg QP:23,32 size: 13541 PSNR Mean Y:43,04 U:46,45 V:46,41 Avg:43,85 Global:43,32


QP не повинно перевищувати 21,5

gfdgsdfgsdfg 
Новенький


З нами з: 04.02.14
Востаннє: 17.12.14
Повідомлень: 2

2014-10-04 19:16  
станьте на роздачу будь ласка
Drool 
VIP


З нами з: 17.04.10
Востаннє: 08.12.16
Повідомлень: 1270

2014-10-05 00:06  
gfdgsdfgsdfg написано:
станьте на роздачу будь ласка

Цитата:
Рейтинг: 0.01
Рейтингу недостатньо. Пороздавайте те, що вже скачали, підніміть рейтинг хоча б до 0.15.
Ваш часовий пояс: GMT + 2 Години

Нова тема   Відповісти