Завантажити та скачати торренти українською


Далеко по сусідству / Quartier lointain (2010) 720p Ukr/Fre

Нові коментарі

Нова тема   Відповісти
Автор Повідомлення
4erkov 
Відео Гуртом - запис з ТБ
Відео Гуртом - запис з ТБ


З нами з: 09.10.10
Востаннє: 03.12.16
Повідомлень: 1846

2012-09-13 18:40  
Далеко по сусідству / Quartier lointain (2010) 720p Ukr/Fre

Далеко по сусідству / Quartier lointain (2010) 720p Ukr/Fre
Офіційний укр. постер

Жанр: драма, фентезі
Країна: Бельгія, Франція, Німеччина

Кіностудія / кінокомпанія: Entre Chien et Loup
Режисер: Сам Гарбарскі
Актори: Паскал Греггорі, Джонатан Заккаі, Александра Марія Лара, Лео Легранд, Лора Мартін
Сюжет:
До п'ятдесяти років у Томаса за спиною престижна робота, рахунок в банку, дружина і діти. А попереду - сіре та нецікаве життя. Одного разу Томас помилково сідає не на той поїзд і опиняється в місті свого дитинства. Саме тут сорок років тому трапилася страшна трагедія, від якої мати так і не змогла оговтатися. Чудесне перетворення дає Томасу можливість повернутися в минуле. Опинившись у власному тілі у чотирнадцятирічному віці, але з досвідом п'ятдесятирічного життя, він знову зустрічає першу шкільну любов, старих друзів, улюблену сестру і вірного пса. Зустрічає і батька, який поки ще не пішов з сім'ї. Можливо, весь сенс дивної подорожі в тому і полягає, щоб запобігти трагедії?..

Тривалість: 01:38:00
Якість:
Відео:
кодек:
розмір кадру: 1280 х 692
бітрейт: 6040 кб/с

Аудіо:
мова: українська
переклад: багатоголосий закадровий
кодек: 2.0 (стерео)
бітрейт: 192 кб/с

Аудіо # 2:
мова: французька
переклад: оригінал
кодек: 5.1
бітрейт: 448 кб/с
Переклад виконано і озвучено:
Студією "KWA Sound Production" на замовлення "Артхаус-Трафік". Джерело: DVD
Ролі озвучили: Ольга Радчук, Євген Малуха та Максим Кондратюк
Скріншоти






Media-Info
General
Unique ID : 237499029834946002667184527118928701801 (0xB2ACA63AA2A46E029737AA70BFF7E969)
Complete name : D:\Релізи\Movies\Quartier Lointain (2010) [ukr,fre] 720p [Hurtom].mkv
Format : Matroska
Format version : Version 2
File size : 4.67 GiB
Duration : 1h 38mn
Overall bit rate : 6 815 Kbps
Movie name : Hurtom
Encoded date : UTC 2012-09-11 16:46:19
Writing application : mkvmerge v5.6.0 ('Kenya Kane') built on May 27 2012 16:44:04
Writing library : libebml v1.2.3 + libmatroska v1.3.0

Video
ID : 1
Format : AVC
Format/Info : Advanced Video Codec
Format profile : [email protected]
Format settings, CABAC : Yes
Format settings, ReFrames : 8 frames
Codec ID : V_MPEG4/ISO/AVC
Duration : 1h 38mn
Bit rate : 6 040 Kbps
Width : 1 280 pixels
Height : 692 pixels
Display aspect ratio : 1.85:1
Frame rate : 24.000 fps
Color space : YUV
Chroma subsampling : 4:2:0
Bit depth : 8 bits
Scan type : Progressive
Bits/(Pixel*Frame) : 0.284
Stream size : 4.13 GiB (89%)
Title : 720p
Writing library : core 116 r2074 2641b9e
Encoding settings : cabac=1 / ref=8 / deblock=1:-2:-2 / analyse=0x3:0x133 / me=umh / subme=11 / psy=1 / psy_rd=1.00:0.00 / mixed_ref=1 / me_range=32 / chroma_me=1 / trellis=2 / 8x8dct=1 / cqm=0 / deadzone=21,11 / fast_pskip=1 / chroma_qp_offset=-2 / threads=3 / sliced_threads=0 / nr=0 / decimate=1 / interlaced=0 / bluray_compat=0 / constrained_intra=0 / bframes=10 / b_pyramid=2 / b_adapt=2 / b_bias=0 / direct=3 / weightb=1 / open_gop=0 / weightp=2 / keyint=240 / keyint_min=24 / scenecut=40 / intra_refresh=0 / rc_lookahead=50 / rc=crf / mbtree=1 / crf=17.0 / qcomp=0.60 / qpmin=10 / qpmax=51 / qpstep=4 / ip_ratio=1.40 / aq=1:1.00
Language : French
Default : Yes
Forced : No
Color primaries : BT.709-5, BT.1361, IEC 61966-2-4, SMPTE RP177
Transfer characteristics : BT.709-5, BT.1361
Matrix coefficients : BT.709-5, BT.1361, IEC 61966-2-4 709, SMPTE RP177

Audio #1
ID : 2
Format : AC-3
Format/Info : Audio Coding 3
Mode extension : CM (complete main)
Format settings, Endianness : Big
Codec ID : A_AC3
Duration : 1h 38mn
Bit rate mode : Constant
Bit rate : 192 Kbps
Channel(s) : 2 channels
Channel positions : Front: L R
Sampling rate : 48.0 KHz
Bit depth : 16 bits
Compression mode : Lossy
Stream size : 135 MiB (3%)
Title : KWA Sound Production
Language : Ukrainian
Default : Yes
Forced : No

Audio #2
ID : 3
Format : AC-3
Format/Info : Audio Coding 3
Mode extension : CM (complete main)
Format settings, Endianness : Big
Codec ID : A_AC3
Duration : 1h 38mn
Bit rate mode : Constant
Bit rate : 448 Kbps
Channel(s) : 6 channels
Channel positions : Front: L C R, Side: L R, LFE
Sampling rate : 48.0 KHz
Bit depth : 16 bits
Compression mode : Lossy
Stream size : 314 MiB (7%)
Title : Original
Language : French
Default : No
Forced : No

Menu
00:00:00.000 : :Chapter 01
00:05:25.583 : :Chapter 02
00:10:19.750 : :Chapter 03
00:14:01.916 : :Chapter 04
00:17:22.666 : :Chapter 05
00:21:26.541 : :Chapter 06
00:26:50.958 : :Chapter 07
00:31:57.625 : :Chapter 08
00:36:24.208 : :Chapter 09
00:41:41.291 : :Chapter 10
00:47:23.208 : :Chapter 11
00:53:29.458 : :Chapter 12
00:58:43.541 : :Chapter 13
01:02:40.083 : :Chapter 14
01:10:16.958 : :Chapter 15
01:14:37.166 : :Chapter 16
01:20:24.875 : :Chapter 17
01:26:18.708 : :Chapter 18
01:37:59.416 : :Chapter 19

Джерело: Висловлюю подяку п. Tarasyk за надану доріжку і п. bober-mober за постер. Зведення - 4erkov.
Особиста оцінка: 10/10


 Трекер:    Зареєстрований   

Завантажити / скачати фільм українською



відео для новачків



 Зареєстрований:   2012-09-13 18:40
 Розмір:   4.67 GB 
 Оцінка фільму:   9.8/10 (Голосів: 14)
   
Інші релізи
   Далеко по-сусідству / Quartier lointain (2010) Ukr/Fre 4erkov  1 / 0   1.59 GB   2012-09-13 18:19 
oleg.plavkov 
Відео Гуртом - фільмокрай
Відео Гуртом - фільмокрай


З нами з: 04.01.12
Востаннє: 26.11.16
Повідомлень: 304

2012-09-13 18:51  
Загалом реліз добрий. можна перевіряти. І сюжет добрий
4erkov 
Відео Гуртом - запис з ТБ
Відео Гуртом - запис з ТБ


З нами з: 09.10.10
Востаннє: 03.12.16
Повідомлень: 1846

2012-09-13 19:02  
oleg.plavkov написано:
Загалом реліз добрий. можна перевіряти. І сюжет добрий

В модератори захотів? Wide grin

oleg.plavkov 
Відео Гуртом - фільмокрай
Відео Гуртом - фільмокрай


З нами з: 04.01.12
Востаннє: 26.11.16
Повідомлень: 304

2012-09-13 19:05  
ТАК!
Bohdan237 
Відео Гуртом - фільмокрай
Відео Гуртом - фільмокрай


З нами з: 12.02.12
Востаннє: 03.12.16
Повідомлень: 383

2012-09-13 19:52  
4erkov написано:
п'ятдесятирічної життя

п'ятдесятирічного життя
Та ж сама помилка у SD релізі

4erkov 
Відео Гуртом - запис з ТБ
Відео Гуртом - запис з ТБ


З нами з: 09.10.10
Востаннє: 03.12.16
Повідомлень: 1846

2012-09-13 19:54  
Bohdan237 написано:
п'ятдесятирічного життя

Дякую, виправив.

taras1994 
Почесний оцифрувальник літератури


З нами з: 23.03.12
Востаннє: 30.11.16
Повідомлень: 5096

2012-09-13 23:44  
oleg.plavkov написано:
ТАК!

розкажи про ефект піаніно, параметри кодування як потрібні для толоки. Якщо не знаєш то не кажи дурниць.

panchana 
Новенький


З нами з: 16.08.13
Востаннє: 30.11.16
Повідомлень: 10

2015-07-07 23:55  
Цікавий сюжет фільму, але на завершені розчарував - було сподівання, що все завершиться не так песимістично.
Ваш часовий пояс: GMT + 2 Години

Нова тема   Відповісти