Завантажити та скачати торренти українською


Люди в чорному 3 / Men in Black 3 (2012) 720p-mini Ukr/Eng | Sub Eng

Нові коментарі

Нова тема   Відповісти
Автор Повідомлення
petro777 
Новенький


З нами з: 19.05.12
Востаннє: 07.12.16
Повідомлень: 8

2012-09-11 19:26  
Люди в чорному 3 / Men in Black 3 (2012) 720p-mini Ukr/Eng | Sub Eng

Люди в чорному 3 / Men in Black 3 (2012) 720p-mini Ukr/Eng | Sub Eng


Жанр: бойовик, фантастика
Країна: США



Кіностудія / кінокомпанія: Amblin Entertainment, Media Magik Entertainment, Parkes/MacDonald Productions
Режисер: Баррі Зонненфельд
Актори: Уілл Сміт, Джош Бролін, Томмі Лі Джонс, Джемейн Клемент, Майкл Стулбарг, Емма Томпсон, Еліс Ів, Майк Колтер, Білл Хейдер, Майкл Чернус

Сюжет: Агент Джей дізнається, що ніякого захисного галактичного щита, здатного відбити іноземний удар, не існує. Він не побудував його, тому що був убитий в 1969 році. Агент повинен здійснити подорож у часі, щоб врятувати Землю і життя напарника.

Тривалість: 01:45:50
Якість:
Відео:
кодек:
розмір кадру: 1280x688
бітрейт: 2561 кб/с

Аудіо #1:
мова: українська
переклад: професійний дубльований
кодек: 5.1
бітрейт: 448 кб/с

Аудіо #2:
мова: англійська
переклад: оригінал
кодек: 5.1
бітрейт: 448 кб/с

Джерело озвучення:


Субтитри:
мова: англійська
тип: програмні (м'які)
формат: .srt
Скріншоти





MediaInfo

General
Unique ID : 250274945185966407938420333971555721970 (0xBC49337D04431E3EBB4B0018D863A2F2)
Complete name :Men Black III (2012) 720p-mini.mkv
Format : Matroska
Format version : Version 2
File size : 2.55 GiB
Duration : 1h 45mn
Overall bit rate : 3 456 Kbps
Movie name : Люди в черном 3 / Men in Black 3 (2012)
Encoded date : UTC 2012-09-11 17:12:28
Writing application : mkvmerge v5.5.0 ('Healer') built on Apr 24 2012 23:47:03
Writing library : libebml v1.2.3 + libmatroska v1.3.0

Video
ID : 1
Format : AVC
Format/Info : Advanced Video Codec
Format profile : [email protected]
Format settings, CABAC : Yes
Format settings, ReFrames : 9 frames
Codec ID : V_MPEG4/ISO/AVC
Duration : 1h 45mn
Bit rate : 2 561 Kbps
Width : 1 280 pixels
Height : 688 pixels
Display aspect ratio : 1.850
Original display aspect ratio : 1.860
Frame rate : 23.976 fps
Color space : YUV
Chroma subsampling : 4:2:0
Bit depth : 8 bits
Scan type : Progressive
Bits/(Pixel*Frame) : 0.121
Stream size : 1.84 GiB (72%)
Writing library : core 125 r2208 d9d2288
Encoding settings : cabac=1 / ref=9 / deblock=1:0:0 / analyse=0x3:0x113 / me=umh / subme=10 / psy=1 / psy_rd=1.00:0.10 / mixed_ref=1 / me_range=32 / chroma_me=1 / trellis=2 / 8x8dct=1 / cqm=0 / deadzone=21,11 / fast_pskip=0 / chroma_qp_offset=-3 / threads=6 / lookahead_threads=1 / sliced_threads=0 / slices=4 / nr=0 / decimate=0 / interlaced=0 / bluray_compat=0 / constrained_intra=0 / bframes=5 / b_pyramid=2 / b_adapt=2 / b_bias=0 / direct=3 / weightb=1 / open_gop=0 / weightp=2 / keyint=240 / keyint_min=24 / scenecut=40 / intra_refresh=0 / rc_lookahead=60 / rc=2pass / mbtree=1 / bitrate=2561 / ratetol=2.0 / qcomp=0.60 / qpmin=0 / qpmax=51 / qpstep=4 / cplxblur=20.0 / qblur=0.5 / ip_ratio=1.40 / aq=1:1.00
Language : English
Default : Yes
Forced : No

Audio #1
ID : 2
Format : AC-3
Format/Info : Audio Coding 3
Mode extension : CM (complete main)
Codec ID : A_AC3
Duration : 1h 45mn
Bit rate mode : Constant
Bit rate : 448 Kbps
Channel(s) : 6 channels
Channel positions : Front: L C R, Side: L R, LFE
Sampling rate : 48.0 KHz
Bit depth : 16 bits
Compression mode : Lossy
Stream size : 339 MiB (13%)
Language : Ukrainian
Default : Yes
Forced : Yes

Audio #2
ID : 3
Format : AC-3
Format/Info : Audio Coding 3
Mode extension : CM (complete main)
Codec ID : A_AC3
Duration : 1h 45mn
Bit rate mode : Constant
Bit rate : 448 Kbps
Channel(s) : 6 channels
Channel positions : Front: L C R, Side: L R, LFE
Sampling rate : 48.0 KHz
Bit depth : 16 bits
Compression mode : Lossy
Stream size : 339 MiB (13%)
Language : English
Default : No
Forced : No

Text
ID : 4
Format : UTF-8
Codec ID : S_TEXT/UTF8
Codec ID/Info : UTF-8 Plain Text
Title : Eng
Language : English
Default : No
Forced : No


 Трекер:    Зареєстрований   

Завантажити / скачати фільм українською



відео для новачків



 Зареєстрований:   2012-09-11 19:26
 Розмір:   2.55 GB 
 Оцінка фільму:   9.5/10 (Голосів: 27)
   
kondronua 
Новенький


З нами з: 30.11.12
Востаннє: 11.11.16
Повідомлень: 4

2012-12-03 02:54  
Будь ласка, підкиньте швидкості... Cry (2) Sad (1)
Ваш часовий пояс: GMT + 2 Години

Нова тема   Відповісти