Завантажити та скачати торренти українською


Люди в чорному 3 / Men in Black 3 (2012) 1080p-mini Ukr/Eng | Sub Eng

Нові коментарі

Нова тема   Відповісти
Останній раз роздавалося sergej_kriv (2016-12-06)
Автор Повідомлення
petro777 
Новенький


З нами з: 19.05.12
Востаннє: 01.12.16
Повідомлень: 8

2012-09-11 12:52  
Люди в чорному 3 / Men in Black 3 (2012) 1080p-mini Ukr/Eng | Sub Eng

Люди в чорному 3 / Men in Black 3 (2012) 1080p-mini Ukr/Eng | Sub Eng


Жанр: бойовик, фантастика
Країна: США



Кіностудія / кінокомпанія: Amblin Entertainment, Media Magik Entertainment, Parkes/MacDonald Productions
Режисер: Баррі Зонненфельд
Актори: Уілл Сміт, Джош Бролін, Томмі Лі Джонс, Джемейн Клемент, Майкл Стулбарг, Емма Томпсон, Еліс Ів, Майк Колтер, Білл Хейдер, Майкл Чернус

Сюжет: Агент Джей дізнається, що ніякого захисного галактичного щита, здатного відбити іноземний удар, не існує. Він не побудував його, тому що був убитий в 1969 році. Агент повинен здійснити подорож у часі, щоб врятувати Землю і життя напарника.

Тривалість: 01:45:50
Якість:
Відео:
кодек:
розмір кадру: 1920 x 1040
бітрейт: 6706 кб/с

Аудіо #1:
мова: українська
переклад: професійний дубльований
кодек: 5.1
бітрейт: 448 кб/с

Аудіо #2:
мова: англійська
переклад: оригінал
кодек: 5.1
бітрейт: 448 кб/с

Джерело озвучення:


Субтитри:
мова: англійська
тип: програмні (м'які)
формат: .srt
Скріншоти





MediaInfo
General
General
Unique ID : 205735001116529397453118778343024609489 (0x9AC71EB376809E9EA803061A9211C8D1)
Complete name : Men in Black III (2012) 1080p-mini.mkv
Format : Matroska
Format version : Version 2
File size : 5.62 GiB
Duration : 1h 45mn
Overall bit rate : 7 599 Kbps
Movie name : Люди в черном 3 / Men in Black 3 (2012)
Encoded date : UTC 2012-09-11 17:05:33
Writing application : mkvmerge v5.5.0 ('Healer') built on Apr 24 2012 23:47:03
Writing library : libebml v1.2.3 + libmatroska v1.3.0

Video
ID : 1
Format : AVC
Format/Info : Advanced Video Codec
Format profile : [email protected]
Format settings, CABAC : Yes
Format settings, ReFrames : 4 frames
Codec ID : V_MPEG4/ISO/AVC
Duration : 1h 45mn
Bit rate : 6 706 Kbps
Width : 1 920 pixels
Height : 1 040 pixels
Display aspect ratio : 16:9
Frame rate : 23.976 fps
Color space : YUV
Chroma subsampling : 4:2:0
Bit depth : 8 bits
Scan type : Progressive
Bits/(Pixel*Frame) : 0.140
Stream size : 4.84 GiB (86%)
Writing library : core 125 r2208 d9d2288
Encoding settings : cabac=1 / ref=4 / deblock=1:-3:-3 / analyse=0x3:0x133 / me=umh / subme=10 / psy=1 / psy_rd=1.00:0.10 / mixed_ref=1 / me_range=32 / chroma_me=1 / trellis=2 / 8x8dct=1 / cqm=0 / deadzone=21,11 / fast_pskip=0 / chroma_qp_offset=-3 / threads=12 / lookahead_threads=2 / sliced_threads=0 / nr=0 / decimate=0 / interlaced=0 / bluray_compat=0 / constrained_intra=0 / bframes=5 / b_pyramid=2 / b_adapt=2 / b_bias=0 / direct=3 / weightb=1 / open_gop=0 / weightp=2 / keyint=240 / keyint_min=23 / scenecut=40 / intra_refresh=0 / rc=2pass / mbtree=0 / bitrate=6706 / ratetol=1.0 / qcomp=0.60 / qpmin=0 / qpmax=69 / qpstep=4 / cplxblur=20.0 / qblur=0.5 / ip_ratio=1.40 / pb_ratio=1.30 / aq=1:0.80
Language : English
Default : Yes
Forced : No

Audio #1
ID : 2
Format : AC-3
Format/Info : Audio Coding 3
Mode extension : CM (complete main)
Codec ID : A_AC3
Duration : 1h 45mn
Bit rate mode : Constant
Bit rate : 448 Kbps
Channel(s) : 6 channels
Channel positions : Front: L C R, Side: L R, LFE
Sampling rate : 48.0 KHz
Bit depth : 16 bits
Compression mode : Lossy
Stream size : 339 MiB (6%)
Language : Ukrainian
Default : Yes
Forced : Yes

Audio #2
ID : 3
Format : AC-3
Format/Info : Audio Coding 3
Mode extension : CM (complete main)
Codec ID : A_AC3
Duration : 1h 45mn
Bit rate mode : Constant
Bit rate : 448 Kbps
Channel(s) : 6 channels
Channel positions : Front: L C R, Side: L R, LFE
Sampling rate : 48.0 KHz
Bit depth : 16 bits
Compression mode : Lossy
Stream size : 339 MiB (6%)
Title : Eng
Language : English
Default : No
Forced : No

Text
ID : 4
Format : UTF-8
Codec ID : S_TEXT/UTF8
Codec ID/Info : UTF-8 Plain Text
Title : Eng
Language : English
Default : No
Forced : No


 Трекер:    Зареєстрований   

Завантажити / скачати фільм українською



відео для новачків



 Зареєстрований:   2012-09-11 21:56
 Розмір:   5.62 GB 
 Оцінка фільму:   9.8/10 (Голосів: 13)
   
merlin_zaraza 
Свій


З нами з: 20.06.09
Востаннє: 06.12.16
Повідомлень: 124

2012-09-11 14:10  
Це що за фігня при кліку на світлині?

21.11.08 Для того, чтобы размещать прямые ссылки на полноразмерные картинки, сайт, на котором они размещаются, должен быть в нашем white-list'е. Подробная информация - в этом топике.
Если Вы хотите, чтобы Ваш сайт (или сайт, который Вам просто нравится) был добавлен в список разрешенных - свяжитесь с нами.

RIP777 
Частий відвідувач


З нами з: 13.02.09
Востаннє: 15.11.16
Повідомлень: 34

2012-09-11 16:36  
Дякую, а не підкажете де можна взяти українські субтитри?
bot 
робот


З нами з: 30.09.07
Востаннє: 26.05.05
Повідомлень: 16019

2012-09-11 16:48  
Тему перенесено з Фільми до форуму Фільми в HD


TheMarlboro

ratbol 
Модератор HD


З нами з: 03.02.09
Востаннє: 06.12.16
Повідомлень: 1088

2012-09-11 17:17  
1. Скріншоти повинні бути в форматі png.
2. Додати звіт медіаінфо.
http://toloka.to/t20052

petro777 
Новенький


З нами з: 19.05.12
Востаннє: 01.12.16
Повідомлень: 8

2012-09-11 17:37  
а як зробити, щчоб тільки я міг роздавати?
ratbol 
Модератор HD


З нами з: 03.02.09
Востаннє: 06.12.16
Повідомлень: 1088

2012-09-11 17:50  
petro777 написано:
щчоб тільки я міг роздавати?

1. Ніяк.
2.
petro777 написано:
Muxing mode : Header stripping

Ця функція має бути вимкнена. Шукаємо в правилах, вимикаємо.
3. Що з доріжкою, на блюреї було 640 кб?
4.
petro777 написано:

Субтитри:
мова: англійська
тип: програмні (м'які)
формат: .sub

формат: srt
5. Допишіть в назву виділене:
Люди в чорному 3 / Men in Black 3 (2012) 1080p-mini Ukr/Eng | Sub Eng

AShifer 
Новенький


З нами з: 03.04.13
Востаннє: 11.06.15
Повідомлень: 1

2015-05-06 17:05  
Роздаю на швидкості 100мбіт 6.05.2015 з 20:00-23:00
Ваш часовий пояс: GMT + 2 Години

Нова тема   Відповісти