Завантажити та скачати торренти українською


Китайський квартал / Chinatown (1974) 1080p Ukr/Eng | sub Eng

Нові коментарі

Нова тема   Відповісти
Автор Повідомлення
Omikron 
VIP


З нами з: 03.01.12
Востаннє: 30.11.16
Повідомлень: 297

2012-09-10 12:49  
Китайський квартал / Chinatown (1974) 1080p Ukr/Eng | sub Eng



Жанр: драма, кримінал, детектив
Країна: США

TOP #76

Режисер: Роман Поланські
Актори: Джек Ніколсон, Фей Данауей, Джон Х'юстон, Перрі Лопес, Джон Хіллерман, Даррел Зверлінг, Дайан Ледд, Рой Дженсон, Роман Поланскі
Сюжет:
Ґіттес приймає пропозицію загадкової багатої красуні зайнятися розслідуванням обставин таємного роману на стороні її чоловіка - інженера. Погодившись на цю справу, Ґіттес не підозрював, що опиниться в центрі таємних скандалів, беззаконня, корупції і прихованих махінацій, правда про яких спливе одного разу вночі разом з тілом нещасного інженера...


Перекладено та озвучено студією "Омікрон" на замовлення HURTOM.COM


Тривалість: 02:10:31
Якість:
Відео:
кодек: [email protected]
розмір кадру: 1920 х 816
бітрейт: 15.5 Мб/с

Аудіо # 1:
мова: українська
переклад: багатоголосий закадровий
кодек: 5.1
бітрейт: 1509 кб/с

Аудіо # 2:
мова: англійська
переклад: оригінал
кодек: 5.1
бітрейт: 1509 кб/с

Субтитри:
мова: англійська
тип: програмні (м'які)
формат: *.srt

Скріншоти:






Звіт MediaInfo:
Format : Matroska
Format version : Version 2
File size : 17.2 GiB
Duration : 2h 10mn
Overall bit rate : 18.9 Mbps
Encoded date : UTC 2012-09-10 09:58:55
Writing application : mkvmerge v2.9.0 ('Moanin'') built on May 22 2009 17:46:31
Writing library : libebml v0.7.7 + libmatroska v0.8.1

Video
ID : 1
Format : AVC
Format/Info : Advanced Video Codec
Format profile : [email protected]
Format settings, CABAC : Yes
Format settings, ReFrames : 4 frames
Codec ID : V_MPEG4/ISO/AVC
Bit rate : 15.5 Mbps
Width : 1 920 pixels
Height : 816 pixels
Display aspect ratio : 2.35:1
Frame rate mode : Variable
Original frame rate : 23.976 fps
Color space : YUV
Chroma subsampling : 4:2:0
Bit depth : 8 bits
Scan type : Progressive
Writing library : core 122 r2184 5c85e0a
Encoding settings : cabac=1 / ref=4 / deblock=1:-3:-3 / analyse=0x3:0x113 / me=umh / subme=11 / psy=1 / psy_rd=1.15:0.00 / mixed_ref=1 / me_range=16 / chroma_me=1 / trellis=2 / 8x8dct=1 / cqm=0 / deadzone=21,11 / fast_pskip=0 / chroma_qp_offset=-2 / threads=6 / sliced_threads=0 / nr=0 / decimate=0 / interlaced=0 / bluray_compat=0 / constrained_intra=0 / bframes=8 / b_pyramid=2 / b_adapt=2 / b_bias=0 / direct=3 / weightb=1 / open_gop=0 / weightp=2 / keyint=250 / keyint_min=23 / scenecut=40 / intra_refresh=0 / rc=crf / mbtree=0 / crf=18.0 / qcomp=0.70 / qpmin=0 / qpmax=69 / qpstep=4 / ip_ratio=1.20 / pb_ratio=1.10 / aq=1:0.65
Language : English
Default : Yes
Forced : No

Audio #1
ID : 2
Format :
Format/Info : Digital Theater Systems
Codec ID : A_DTS
Duration : 2h 10mn
Bit rate mode : Constant
Bit rate : 1 510 Kbps
Channel(s) : 6 channels
Channel positions : Front: L C R, Side: L R, LFE
Sampling rate : 48.0 KHz
Bit depth : 24 bits
Compression mode : Lossy
Stream size : 1.38 GiB (8%)
Title : MVO Omikron Studio for Hurtom
Language : Ukrainian
Default : Yes
Forced : No

Audio #2
ID : 3
Format :
Format/Info : Digital Theater Systems
Codec ID : A_DTS
Duration : 2h 10mn
Bit rate mode : Constant
Bit rate : 1 510 Kbps
Channel(s) : 6 channels
Channel positions : Front: L C R, Side: L R, LFE
Sampling rate : 48.0 KHz
Bit depth : 24 bits
Compression mode : Lossy
Delay relative to video : 11ms
Stream size : 1.38 GiB (8%)
Title : English 5.1 - 1509 kbps
Language : English
Default : No
Forced : No

Text
ID : 4
Format : UTF-8
Codec ID : S_TEXT/UTF8
Codec ID/Info : UTF-8 Plain Text
Title : English Subtitle - SRT
Language : English
Default : No
Forced : No

Menu
00:00:00.000 : en:00:00:00.000
00:05:46.179 : en:00:05:46.179
00:16:21.230 : en:00:16:21.230
00:24:39.895 : en:00:24:39.895
00:36:10.168 : en:00:36:10.168
00:45:12.043 : en:00:45:12.043
00:59:57.928 : en:00:59:57.928
01:06:28.902 : en:01:06:28.902
01:14:47.191 : en:01:14:47.191
01:20:22.234 : en:01:20:22.234
01:29:11.471 : en:01:29:11.471
01:35:31.517 : en:01:35:31.517
01:47:13.552 : en:01:47:13.552
01:54:15.432 : en:01:54:15.432
01:59:51.393 : en:01:59:51.393
02:03:43.583 : en:02:03:43.583
Про озвучення:

Українське озвучення створено студією "Омікрон" на замовлення Hurtom.com в рамках проекту "Хочеш кіно українською? Замовляй!"

Дякуємо користувачам, що фінансово допомогли проекту:
vanami, panama58, somnambula, Qualcuno, have got, Андрій Данилюк, Demetrios, Шейнога Станіслав, BMK12, giv4yk, Vasyl37, s.e.w.e.r.y.n, keloglan, vital_om, lov1k, Сергій, Тарас12 Байко, loiknazar, msl, star-ik, Sn00pY_UA, batiaruk, Mitrukhin, eng1, puryk, Belatrix, Breniak, Дмитро, myrf, starik, SergiYY, virtus8hur, Petro.Petrenko@, Andrlo, Kruk, toljanuch, Siaivo, Cicero75, Дмитро, Джерх, borkin, dtomilin, SirPent, smindmax, valiksvp, km1292, dtomilin, alis_3d, baton80, vilvil-vilvil, weksha, mihaluch2006, Marko, valiksvp, rudchenkos, skuline, nokiamen, Dmytrok, лісиче, SirPent, develvic, OLENOCHKAMIZINA, plumular, stefkivsky, oleh_oleh, гілка, oleks143, 737444, asu, Sling, elwolf, rst, Grygoriy, nemos, [email protected], Настя Мироненко, Cozzzac, 3ipbudax, Doctor Chd, Yevgeniy Protsyuk, stalker_cv, Dr.Cruncher, Віртуальний Дурник, Леонід Овод, Sensetivity, Hummer, Rost3, werfolomey, lionet, Beff, Морж, xxxcasperxxx, Sat0r, Snuryus, MisterR, М_а_м_а_Й

Детальніше про акцію озвучення
Детальніше про те, як обиралися фільми


За постер подяка Gelios.

Джерело:


Авторський реліз (завантажувати можна без реєстрації)
 Трекер:    Зареєстрований   

Завантажити / скачати фільм українською



відео для новачків



 Зареєстрований:   2012-09-10 12:49
 Розмір:   17.21 GB 
 Оцінка фільму:   9.8/10 (Голосів: 5)
   
Інші релізи
   Китайський квартал / Chinatown (1974) [MP4, 640x] apvAltisimo  0 / 0   777 MB   2016-04-09 12:56 
   Китайський квартал / Chinatown (1974) 720p Ukr/Eng | sub Eng Omikron  8 / 0   4.36 GB   2012-09-10 19:50 
   Китайський квартал / Chinatown (1974) Omikron  8 / 0   2.18 GB   2012-09-10 18:35 
   Китайський квартал / Chinatown (1974) Remux Ukr/Eng | sub Eng Omikron  0 / 0   39.75 GB   2012-09-10 15:01 
Ваш часовий пояс: GMT + 2 Години

Нова тема   Відповісти