Завантажити та скачати торренти українською


Китайський квартал / Chinatown (1974) 720p Ukr/Eng | sub Eng

Нові коментарі

Нова тема   Відповісти
Автор Повідомлення
Omikron 
VIP


З нами з: 03.01.12
Востаннє: 07.12.16
Повідомлень: 298

2012-09-09 22:29  
Китайський квартал / Chinatown (1974) 720p Ukr/Eng | sub Eng



Жанр: драма, кримінал, детектив
Країна: США

TOP #76

Режисер: Роман Поланські
Актори: Джек Ніколсон, Фей Данауей, Джон Х'юстон, Перрі Лопес, Джон Хіллерман, Даррел Зверлінг, Дайан Ледд, Рой Дженсон, Роман Поланскі
Сюжет:
Ґіттес приймає пропозицію загадкової багатої красуні зайнятися розслідуванням обставин таємного роману на стороні її чоловіка - інженера. Погодившись на цю справу, Ґіттес не підозрював, що опиниться в центрі таємних скандалів, беззаконня, корупції і прихованих махінацій, правда про яких спливе одного разу вночі разом з тілом нещасного інженера...


Перекладено та озвучено студією "Омікрон" на замовлення HURTOM.COM


Тривалість: 02:10:31
Якість:
Відео:
кодек:
розмір кадру: 1280x544
бітрейт: 3 882 кб/с

Аудіо # 1:
мова: українська
переклад: багатоголосий закадровий
кодек: 5.1
бітрейт: 448 кб/с

Аудіо # 2:
мова: англійська
переклад: оригінал
кодек: 5.1
бітрейт: 448 кб/с

Субтитри:
мова: англійська
тип: програмні (м'які)
формат: *.srt

Звіт MediaInfo:
General
Unique ID : 239269796472746689810931585958412614521 (0xB401AFC3CCF4DE0E8523F90E09F4FB79)
Complete name : Chinatown (1974) [ukr,eng] 720p [Hurtom].mkv
Format : Matroska
Format version : Version 2
File size : 4.36 GiB
Duration : 2h 10mn
Overall bit rate : 4 780 Kbps
Movie name : Китайський квартал / Chinatown (1974) [Hurtom]
Encoded date : UTC 2012-09-10 17:12:16
Writing application : mkvmerge v5.8.0 ('No Sleep / Pillow') built on Sep 2 2012 15:37:04
Writing library : libebml v1.2.3 + libmatroska v1.3.0

Video
ID : 1
Format : AVC
Format/Info : Advanced Video Codec
Format profile : [email protected]
Format settings, CABAC : Yes
Format settings, ReFrames : 8 frames
Codec ID : V_MPEG4/ISO/AVC
Duration : 2h 10mn
Bit rate : 3 882 Kbps
Width : 1 280 pixels
Height : 544 pixels
Display aspect ratio : 2.35:1
Frame rate : 23.976 fps
Color space : YUV
Chroma subsampling : 4:2:0
Bit depth : 8 bits
Scan type : Progressive
Bits/(Pixel*Frame) : 0.233
Stream size : 3.45 GiB (79%)
Writing library : core 125 r2208 d9d2288
Encoding settings : cabac=1 / ref=8 / deblock=1:-2:-2 / analyse=0x3:0x133 / me=umh / subme=9 / psy=1 / psy_rd=1.00:0.25 / mixed_ref=1 / me_range=16 / chroma_me=1 / trellis=2 / 8x8dct=1 / cqm=0 / deadzone=6,6 / fast_pskip=1 / chroma_qp_offset=-4 / threads=12 / lookahead_threads=2 / sliced_threads=0 / nr=0 / decimate=0 / interlaced=0 / bluray_compat=0 / constrained_intra=0 / bframes=3 / b_pyramid=2 / b_adapt=2 / b_bias=0 / direct=3 / weightb=1 / open_gop=0 / weightp=2 / keyint=240 / keyint_min=23 / scenecut=40 / intra_refresh=0 / rc_lookahead=60 / rc=2pass / mbtree=1 / bitrate=3882 / ratetol=1.0 / qcomp=0.80 / qpmin=0 / qpmax=69 / qpstep=4 / cplxblur=20.0 / qblur=0.5 / ip_ratio=1.10 / aq=1:0.50
Default : Yes
Forced : No

Audio #1
ID : 2
Format : AC-3
Format/Info : Audio Coding 3
Mode extension : CM (complete main)
Format settings, Endianness : Big
Codec ID : A_AC3
Duration : 2h 10mn
Bit rate mode : Constant
Bit rate : 448 Kbps
Channel(s) : 6 channels
Channel positions : Front: L C R, Side: L R, LFE
Sampling rate : 48.0 KHz
Bit depth : 16 bits
Compression mode : Lossy
Stream size : 418 MiB (9%)
Title : Озвучено студією Омікрон на замовлення hurtom.com
Language : Ukrainian
Default : Yes
Forced : No

Audio #2
ID : 3
Format : AC-3
Format/Info : Audio Coding 3
Mode extension : CM (complete main)
Format settings, Endianness : Big
Codec ID : A_AC3
Duration : 2h 10mn
Bit rate mode : Constant
Bit rate : 448 Kbps
Channel(s) : 6 channels
Channel positions : Front: L C R, Side: L R, LFE
Sampling rate : 48.0 KHz
Bit depth : 16 bits
Compression mode : Lossy
Stream size : 418 MiB (9%)
Language : English
Default : No
Forced : No

Text
ID : 4
Format : UTF-8
Codec ID : S_TEXT/UTF8
Codec ID/Info : UTF-8 Plain Text
Language : English
Default : No
Forced : No
Про озвучення:

Українське озвучення створено студією "Омікрон" на замовлення Hurtom.com в рамках проекту "Хочеш кіно українською? Замовляй!"

Дякуємо користувачам, що фінансово допомогли проекту:
vanami, panama58, somnambula, Qualcuno, have got, Андрій Данилюк, Demetrios, Шейнога Станіслав, BMK12, giv4yk, Vasyl37, s.e.w.e.r.y.n, keloglan, vital_om, lov1k, Сергій, Тарас12 Байко, loiknazar, msl, star-ik, Sn00pY_UA, batiaruk, Mitrukhin, eng1, puryk, Belatrix, Breniak, Дмитро, myrf, starik, SergiYY, virtus8hur, Petro.Petrenko@, Andrlo, Kruk, toljanuch, Siaivo, Cicero75, Дмитро, Джерх, borkin, dtomilin, SirPent, smindmax, valiksvp, km1292, dtomilin, alis_3d, baton80, vilvil-vilvil, weksha, mihaluch2006, Marko, valiksvp, rudchenkos, skuline, nokiamen, Dmytrok, лісиче, SirPent, develvic, OLENOCHKAMIZINA, plumular, stefkivsky, oleh_oleh, гілка, oleks143, 737444, asu, Sling, elwolf, rst, Grygoriy, nemos, [email protected], Настя Мироненко, Cozzzac, 3ipbudax, Doctor Chd, Yevgeniy Protsyuk, stalker_cv, Dr.Cruncher, Віртуальний Дурник, Леонід Овод, Sensetivity, Hummer, Rost3, werfolomey, lionet, Beff, Морж, xxxcasperxxx, Sat0r, Snuryus, MisterR, М_а_м_а_Й

Детальніше про акцію озвучення
Детальніше про те, як обиралися фільми


За постер подяка Gelios.

Джерело:


Авторський реліз (завантажувати можна без реєстрації)
 Трекер:    Зареєстрований   

Завантажити / скачати фільм українською



відео для новачків



 Зареєстрований:   2012-09-10 19:50
 Розмір:   4.36 GB 
 Оцінка фільму:   9.7/10 (Голосів: 23)
   
Інші релізи
   Китайський квартал / Chinatown (1974) [MP4, 640x] apvAltisimo  0 / 0   777 MB   2016-04-09 12:56 
   Китайський квартал / Chinatown (1974) Omikron  11 / 0   2.18 GB   2012-09-10 18:35 
   Китайський квартал / Chinatown (1974) Remux Ukr/Eng | sub Eng Omikron  0 / 0   39.75 GB   2012-09-10 15:01 
   Китайський квартал / Chinatown (1974) 1080p Ukr/Eng | sub Eng Omikron  1 / 0   17.21 GB   2012-09-10 12:49 
Stepan2009 
VIP


З нами з: 18.09.10
Востаннє: 07.12.16
Повідомлень: 322

2012-09-10 21:31  
Ого. Четвертий збір пройшов блискавично швидко, та й озвучення з'явились досить швидко - організатори молодці - систему налагодили справно. За реліз дяка, але як я вже багато разів писав - озвучення таких старих фільмів - гроші на вітер.
rooster 
Відео Гуртом - фільмокрай
Відео Гуртом - фільмокрай


З нами з: 23.04.09
Востаннє: 04.12.16
Повідомлень: 1328

2012-09-11 19:17  
Stepan2009 написано:
але як я вже багато разів писав - озвучення таких старих фільмів - гроші на вітер.

Більшої маячні на Толоці ще не бачив!

taras1994 
Почесний оцифрувальник літератури


З нами з: 23.03.12
Востаннє: 30.11.16
Повідомлень: 5096

2012-09-13 11:03  
Stepan2009 написано:
озвучення таких старих фільмів - гроші на вітер.

ти фільм дивився? Якщо не дивився то помовчи.

Фільм дійсно вартий всіх гривень які було потрачено на його озвучення. Сюжет на голову вищий від того всього що знімають зараз. Розвиток подій, персонажі, сцени, події. Передбачено все, а разом складається в певну історію. І над цією історією варто подумати.

Ще раз повторюю, це дуже цікавий фільм. Раджу всі подивитися.

igrik09 
Відео Гуртом - фільмокрай
Відео Гуртом - фільмокрай


З нами з: 26.12.11
Востаннє: 02.03.15
Повідомлень: 131

2012-09-24 19:21  
Ще два постери



nissal 
Свій


З нами з: 14.04.11
Востаннє: 21.12.14
Повідомлень: 78

2012-11-04 00:03  
З поваги до Фей і Джека - 5. Нетривіальний фінал... та й сюжет. Проте, як на мене, не вистачає глибини Happy Дивився в 2 заходи.
taras1994 
Почесний оцифрувальник літератури


З нами з: 23.03.12
Востаннє: 30.11.16
Повідомлень: 5096

2012-11-04 04:15  
nissal написано:
Нетривіальний фінал... та й сюжет

Та нормально сюжет закрутили, мені було цікаво дивитися. А фінал не передбачуваний, чого ще очікувати від такого фільму?

Ваш часовий пояс: GMT + 2 Години

Нова тема   Відповісти