Завантажити та скачати торренти українською


Kapela Watra - Bieszczadzkie Spiewanie (2011) [FLAC] | Ethno Folk

Нові коментарі

Нова тема   Відповісти
Останній раз роздавалося Myfordownloads (2016-10-09)
Автор Повідомлення
ingwar 
Модератор літератури


З нами з: 08.03.08
Востаннє: 05.12.16
Повідомлень: 1200

2012-09-08 16:06  
Kapela Watra - Bieszczadzkie Spiewanie (2011) [FLAC] | Ethno Folk

Kapela Watra - Bieszczadzkie Spiewanie (2011) [FLAC] | Ethno Folk


Стиль: Ethno Folk
Країна, місто: Польща, Сянок
Сайти: Офіційний сайт
Видавець: U Tesi
Пісні:
    01. Czom ty ne pryjszol
    02. Czerwena ruta
    03. Tyz mene pidmanula
    04. Wze sonce nizenko
    05. Byla mene maty
    06. Jihal kozak czerez misto
    07. Niczenka
    08. Nese Hala wodu
    09. Czerez pole szyrokyje
    10. Dumka Bohuna
    11. Czorni oczka
    12. Horylka

Тривалість: 00:39:00
Мова: українська
Аудіо-кодек: FLAC
Бітрейт: 977 кб/с
Джерело: Власний ріп
Додаткова інформація:
Капела "Watra" складається з двох співаків-музикантів, один з них грає на гітарі,- інший- на акордеоні. Музика, яку грає дует, пов'язана з традиціями Бещад, перш за все із поширеною тут бойківською і лемківською культурою. Багато пісень і мелодії артисти знають з родин. Їх предків, які мешкали у Бещадах від віків, завірюха повоєнних переселень на декілька років кинула в інші місця. З часом вони повернулися у Бещади. Дідусі і батьки, які не забули давніх традицій, передали їх синам. Так виникли фундаменти репертуару. У три - чотиригодинну програму можна послухати також інших загальних творів. Музиканти грають старі, народні українські мелодії, польські, словацькі і балади мандруючих через Карпати циганів. Повоєнний період в історії Бещад також специфічний, якщо йдеться про музику. Краса природи цих гір - легендарного вже "польського Дикого Заходу на Сході" і незвичайність людей, які тут поселилися, були натхненням для творців туристичної і поетичної пісні. Ця музична течія також присутня в музичному "меню" капели "Watra".


Якщо Ви справді бажаєте підтримати українське - після прослуховування, якщо музика вам сподобалась, придбайте ліцензійний диск. Підтримаймо вітчизняних виконавців!
Обкладинка

log
Exact Audio Copy V1.0 beta 3 from 29. August 2011

Отчёт EAC об извлечении, выполненном 8. сентября 2012, 21:58

Unknown Artist / Unknown Title

Дисковод: HL-DT-STDVDRAM GSA-T20L Adapter: 1 ID: 0

Режим чтения : Достоверность
Использование точного потока : Да
Отключение кэша аудио : Нет
Использование указателей C2 : Да

Коррекция смещения при чтении : 667
Способность читать области Lead-in и Lead-out : Нет
Заполнение пропущенных сэмплов тишиной : Да
Удаление блоков с тишиной в начале и конце : Нет
При вычислениях CRC использовались нулевые сэмплы : Да
Интерфейс : Встроенный Win32-интерфейс для Win NT/2000

Выходной формат : Пользовательский кодировщик
Выбранный битрейт : 768 kBit/s
Качество : Высокий
Добавление ID3-тега : Нет
Утилита сжатия : C:\Program Files\Exact Audio Copy\FLAC\FLAC.EXE
Дополнительные параметры : -6 -V -T "ARTIST=%artist%" -T "TITLE=%title%" -T "ALBUM=%albumtitle%" -T "DATE=%year%" -T "TRACKNUMBER=%tracknr%" -T "GENRE=%genre%" -T "COMMENT=%comment%" -T "BAND=%albuminterpret%" -T "ALBUMARTIST=%albuminterpret%" -T "COMPOSER=%composer%" %haslyrics%--tag-from-file=LYRICS="%lyricsfile%"%haslyrics% -T "DISCNUMBER=%cdnumber%" -T "TOTALDISCS=%totalcds%" -T "TOTALTRACKS=%numtracks%" %hascover%--picture="%coverfile%"%hascover% %source% -o %dest%

TOC извлечённого CD

Трек | Старт | Длительность | Начальный сектор | Конечный сектор
---------------------------------------------------------------------
1 | 0:00.00 | 4:02.50 | 0 | 18199
2 | 4:02.50 | 2:49.74 | 18200 | 30948
3 | 6:52.49 | 2:45.10 | 30949 | 43333
4 | 9:37.59 | 3:52.55 | 43334 | 60788
5 | 13:30.39 | 2:51.04 | 60789 | 73617
6 | 16:21.43 | 2:37.24 | 73618 | 85416
7 | 18:58.67 | 3:41.49 | 85417 | 102040
8 | 22:40.41 | 3:53.19 | 102041 | 119534
9 | 26:33.60 | 1:36.65 | 119535 | 126799
10 | 28:10.50 | 2:38.12 | 126800 | 138661
11 | 30:48.62 | 3:36.54 | 138662 | 154915
12 | 34:25.41 | 4:40.37 | 154916 | 175952

Характеристики диапазона извлечения и сообщения об ошибках

Выбранный диапазон

Имя файла C:\Users\IC\Desktop\Створити папку (2)\Unknown Artist - Unknown Title.wav

Пиковый уровень 100.0 %
Скорость извлечения 9.8 X
Качество диапазона 99.9 %
CRC копии C923039D
Копирование... OK

Ошибок не произошло

AccurateRip: сводка

Трек 1 отсутствует в базе данных
Трек 2 отсутствует в базе данных
Трек 3 отсутствует в базе данных
Трек 4 отсутствует в базе данных
Трек 5 отсутствует в базе данных
Трек 6 отсутствует в базе данных
Трек 7 отсутствует в базе данных
Трек 8 отсутствует в базе данных
Трек 9 отсутствует в базе данных
Трек 10 отсутствует в базе данных
Трек 11 отсутствует в базе данных
Трек 12 отсутствует в базе данных

Ни одного трека нет в базе AccurateRip

Конец отчёта
Цей же диск у форматі MP3: Kapela Watra - Bieszczadzkie Spiewanie (2011) [FLAC] | Ethno Folk


Срібний реліз (на рейтинг впливає 50% завантаженого)
 Трекер:    Зареєстрований   

Завантажити / скачати українську музику



відео для новачків



 Зареєстрований:   2012-09-08 16:06
 Розмір:   272 MB 
 Оцінка музики:   10/10 (Голосів: 3)
   
ssTAss 
Модератор музики


З нами з: 05.07.08
Востаннє: 06.12.16
Повідомлень: 10946

2012-09-08 18:39  
попрошу звіт аудіочекера чи fooCDtect
ingwar 
Модератор літератури


З нами з: 08.03.08
Востаннє: 05.12.16
Повідомлень: 1200

2012-09-08 21:03  
Я, чесно кажучи, не знаю як зробити те за що ви пишете. Але я додав лог з EAC,- його програма видає при ріпі диска... Це підійде, чи ви за щось зовсім інше писали?
andrewz 
Новенький


З нами з: 17.02.10
Востаннє: 02.12.16
Повідомлень: 23

2012-09-25 18:26  
класно співають, але - слова путають , замість "плакала-риДала", співають "плакала-риГала"
замість "увійшла в мої мрії", співають "увійшла в моїй вірі"
можливо в лемків так й співалось, але для сучасного українця - слух ріжуть такі ляпи.

Ваш часовий пояс: GMT + 2 Години

Нова тема   Відповісти