Завантажити та скачати торренти українською


Карти, гроші і два стволи / Lock, Stock and Two Smoking Barrels (1998) BDRiр 720p 2xUkr/Eng | sub Eng

Нові коментарі

Нова тема   Відповісти
Автор Повідомлення
mix14 
Поважний учасник


З нами з: 29.08.11
Востаннє: 02.12.16
Повідомлень: 152

2012-09-08 09:23  
Карти, гроші і два стволи / Lock, Stock and Two Smoking Barrels (1998) BDRiр 720p 2xUkr/Eng | sub Eng

Карти, гроші і два стволи / Lock, Stock and Two Smoking Barrels (1998) BDRiр 720p 2xUkr/Eng | sub Eng

Оригінальний постер


Жанр: бойовик, комедія, кримінальний
Країна: Великобританія

ТОП 250: №144

Кіностудія / кінокомпанія: Summit Entertainment
Режисер: Гай Рітчі
Актори: Вінні Джонс, Джейсон Флемінг, Джейсон Стетхем, Стінг, Вес Блеквуд, Стівен Маркус, Тоні МакМехон, Ронні Фокс, Хаггі Лівер, Френк Харпер, П. Х. Моріарті, Пітер МакНіколл, Ленні МакЛін, Чарлі Форбс, Нік Марк, Ніколас Роу, Стівен Макінтош, Декстер Флетчер, Нік Моран

Сюжет:
Четверо молодих хлопців накопичили кожен по 25 тисяч фунтів, щоб один з них міг зіграти в карти з досвідченим шулером і досвідченим злочинцем, відомим на прізвисько Гарі-Сокира. Хлопець у підсумку програв 500 тисяч, на сплату боргу йому дали тиждень.

В іншому випадку і йому, і його «спонсорам» щодня будуть відрубувати по пальцю, а потім ... Щоб вийти з положення, хлопці вирішили пограбувати бандитів, що мають обікрасти трьох «ботаніків», які вирощують марихуану для місцевого наркобарона. Але на цьому пригоди четвірки не закінчуються...


Тривалість: 01:47:23
Якість:
Відео:
кодек:
розмір кадру: 1280 x 692
бітрейт: 9061 кб/с

Аудіо # 1:
мова: українська
переклад: багатоголосий закадровий
кодек: 2.0
бітрейт: 192 кб/с
подяка: пану xslim, а за зведення - пану karvai0
Інформація про озвучення
Аудіо # 2:
мова: українська
переклад: двоголосий закадровий (на час озвучення телеканал "Кіно")
кодек: 5.1
бітрейт: 448 кб/с
подяка: пані olgaya, а за зведення - пану JACKUS
Інформація про озвучення
Аудіо # 3:
мова: англійська
переклад: оригінал
кодек: 5.1
бітрейт: 384 кб/с

Субтитри:
мова: англійська
тип: програмні (м'які)
формат: *.srt
MediaInfo
General
Unique ID : 231125382198647222394230675940152448393 (0xADE12123884DA5D088FD832D24AC1589)
Complete name : D:\Films\Lock, Stock and Two Smoking Barrels (1998) 720p [2ukr,eng].mkv
Format : Matroska
Format version : Version 2
File size : 7.56 GiB
Duration : 1h 47mn
Overall bit rate : 10.1 Mbps
Encoded date : UTC 2013-05-08 06:49:39
Writing application : mkvmerge v5.7.0 ('The Whirlwind') built on Jul 8 2012 20:08:51
Writing library : libebml v1.2.3 + libmatroska v1.3.0

Video
ID : 1
Format : AVC
Format/Info : Advanced Video Codec
Format profile : [email protected]
Format settings, CABAC : Yes
Format settings, ReFrames : 8 frames
Codec ID : V_MPEG4/ISO/AVC
Duration : 1h 47mn
Bit rate : 9 061 Kbps
Width : 1 280 pixels
Height : 692 pixels
Display aspect ratio : 1.850
Frame rate : 23.976 fps
Color space : YUV
Chroma subsampling : 4:2:0
Bit depth : 8 bits
Scan type : Progressive
Bits/(Pixel*Frame) : 0.427
Stream size : 6.64 GiB (88%)
Writing library : core 124 r2197 69a0443
Encoding settings : cabac=1 / ref=8 / deblock=1:-3:-3 / analyse=0x3:0x113 / me=esa / subme=10 / psy=1 / psy_rd=0.90:0.10 / mixed_ref=1 / me_range=32 / chroma_me=1 / trellis=2 / 8x8dct=1 / cqm=0 / deadzone=21,11 / fast_pskip=0 / chroma_qp_offset=-3 / threads=6 / sliced_threads=0 / nr=0 / decimate=1 / interlaced=0 / bluray_compat=0 / constrained_intra=0 / bframes=7 / b_pyramid=2 / b_adapt=2 / b_bias=0 / direct=3 / weightb=1 / open_gop=0 / weightp=2 / keyint=240 / keyint_min=23 / scenecut=40 / intra_refresh=0 / rc=2pass / mbtree=0 / bitrate=9061 / ratetol=1.0 / qcomp=0.80 / qpmin=0 / qpmax=69 / qpstep=4 / cplxblur=20.0 / qblur=0.5 / ip_ratio=1.40 / pb_ratio=1.20 / aq=2:0.90
Language : English
Default : Yes
Forced : No
Color primaries : BT.709-5, BT.1361, IEC 61966-2-4, SMPTE RP177
Transfer characteristics : BT.709-5, BT.1361
Matrix coefficients : BT.709-5, BT.1361, IEC 61966-2-4 709, SMPTE RP177

Audio #1
ID : 2
Format : AC-3
Format/Info : Audio Coding 3
Mode extension : CM (complete main)
Codec ID : A_AC3
Duration : 1h 47mn
Bit rate mode : Constant
Bit rate : 192 Kbps
Channel(s) : 2 channels
Channel positions : Front: L R
Sampling rate : 48.0 KHz
Bit depth : 16 bits
Compression mode : Lossy
Stream size : 147 MiB (2%)
Default : No
Forced : No

Audio #2
ID : 3
Format : AC-3
Format/Info : Audio Coding 3
Mode extension : CM (complete main)
Codec ID : A_AC3
Duration : 1h 47mn
Bit rate mode : Constant
Bit rate : 448 Kbps
Channel(s) : 6 channels
Channel positions : Front: L C R, Side: L R, LFE
Sampling rate : 48.0 KHz
Bit depth : 16 bits
Compression mode : Lossy
Stream size : 344 MiB (4%)
Default : Yes
Forced : No

Audio #3
ID : 4
Format : AC-3
Format/Info : Audio Coding 3
Mode extension : CM (complete main)
Codec ID : A_AC3
Duration : 1h 47mn
Bit rate mode : Constant
Bit rate : 384 Kbps
Channel(s) : 6 channels
Channel positions : Front: L C R, Side: L R, LFE
Sampling rate : 48.0 KHz
Bit depth : 16 bits
Compression mode : Lossy
Stream size : 295 MiB (4%)
Language : English
Default : No
Forced : No

Text
ID : 5
Format : UTF-8
Codec ID : S_TEXT/UTF8
Codec ID/Info : UTF-8 Plain Text
Language : English
Default : No
Forced : No
Скріншоти










Нагороди

1998 - Премія British Comedy Award за кращу комедію Великобританії
1998 - Премія British Independent Film Award за фільм, що найбільше себе окупив
1998 - Премія на міжнародному фестивалі в Токіо за кращу режисуру (Гай Річі)
1999 - Приз глядацьких симпатій BAFTA
1999 - Премія Empire Award за кращий фільм Великобританії
1999 - Премія Empire Award за кращий дебют (Вінні Джонс)
1999 - Премія Evening Standard British Film Awards за новаторську режисуру (Гай Річі)
1999 - Премія London Critics Circle Film Award за кращий фільм Великобританії
1999 - Премія London Critics Circle Film Award за кращий сценарій (Гай Річі)
1999 - Премія MTV за кращий режисерський дебют (Гай Річі)
2000 - Премія «Golden Slate» за найсмішніший фільм
2000 - Премія «Едгар» за кращий сценарій (Гай Річі)
Джерело: &
Особиста оцінка: 10 - без зайвих вагань рекомендую всім! Дуже кумедний фільм.
Відсутності звуку після 53 хв. більше немає!


Срібний реліз (на рейтинг впливає 50% завантаженого)
 Трекер:    Зареєстрований   

Завантажити / скачати фільм українською



відео для новачків



 Зареєстрований:   2013-05-08 09:04
 Розмір:   7.56 GB 
 Оцінка фільму:   9.8/10 (Голосів: 34)
   
taras1994 
Почесний оцифрувальник літератури


З нами з: 23.03.12
Востаннє: 30.11.16
Повідомлень: 5096

2012-09-08 09:51  
Дуже не цікавий фільм, не раджу дивитися, мені він не сподобався.
grodt 
Новенький


З нами з: 07.07.10
Востаннє: 03.12.16
Повідомлень: 1

2012-09-08 11:55  
Цитата:
Дуже не цікавий фільм, не раджу дивитися, мені він не сподобався.


Ти не шариш) Це дуже крутий фільм від крутого режисера..)

vovaniko 
Почесний оцифрувальник літератури


З нами з: 14.09.10
Востаннє: 12.02.15
Повідомлень: 1135

2012-09-08 12:11  
grodt написано:
... Це дуже крутий фільм від крутого режисера..)

+1

Ronaldo_KS 
Новенький


З нами з: 14.05.10
Востаннє: 03.12.16
Повідомлень: 18

2012-09-08 17:28  
Один з найкращих фільмів, що я бачив!
benrem 
Новенький


З нами з: 24.09.08
Востаннє: 03.12.16
Повідомлень: 6

2012-09-08 20:31  
Один з найкращих фільмів, на мою думку
andzim 
Новенький


З нами з: 15.02.12
Востаннє: 01.12.16
Повідомлень: 2

2012-09-20 14:09  
класний фільм
micrays 
Новенький


З нами з: 04.01.12
Востаннє: 30.11.16
Повідомлень: 16

2012-10-05 11:55  
27 людей завантажили і ніхто не попередив що після 53 хв. пропадає звук
Sepoolka 
Свій


З нами з: 27.05.09
Востаннє: 28.11.16
Повідомлень: 88

2012-10-10 00:11  
Підтверджую, після 53 хв звуку не має, ні української доріжки, ні англійської
vic88888888 
Свій


З нами з: 11.11.10
Востаннє: 30.11.16
Повідомлень: 66

2012-10-11 11:11  
Чесно кажучи, тільки недавно подивився це кіно і не отримав такого задоволення, як від "подальшої творчості". Мабуть воно і логічно. Фільми Гая Річі дуже вирізняються серед робіт подібного жанру. Як на мене, це типово англійський, стриманий, кримінальний хюмор. Та все ж таки, особисто я вважаю, шо пізніші роботи більш "зрілі", так би мовити. "Великий куш", "Рокенрольник" (це взагалі бомба) більш самодостатні.
mix14 
Поважний учасник


З нами з: 29.08.11
Востаннє: 02.12.16
Повідомлень: 152

2013-02-07 11:31  
Поміняв торент через відсутність звуку після 53 хв.
Проблема вирішена

Jack_Daniels 
VIP


З нами з: 30.07.10
Востаннє: 02.12.16
Повідомлень: 297

2013-02-07 12:58  
Чудовий фільм, а про зрілість не погоджусь... Фільм на рівні з "Великий куш", "Рокенрольник", своєрідний гумор, класна атмосфера, без голівудського гармидеру Happy
п.с. А ЧОГО ЗВУК ТАКИЙ ПРИГЛУШЕНИЙ ? ТАКЕ ВРАЖЕННЯ НІБИ З ПІД КОВДРИ ЧИТАЮТЬ ?!

Levan 
Новенький


З нами з: 02.04.10
Востаннє: 17.11.16
Повідомлень: 13

2013-02-07 15:20  
taras1994
0_o? ти серйозно?

Alien8 
Частий відвідувач


З нами з: 12.07.10
Востаннє: 18.10.16
Повідомлень: 46

2013-05-08 11:54  
Цитата:
якф вирощують марихуану


мабуть, треба викравити на "які"

Virake 
Localize Team
Localize Team


З нами з: 07.07.09
Востаннє: 03.12.16
Повідомлень: 4050

2013-05-12 12:30  
хороший фільм.
Прокурор 
VIP


З нами з: 24.06.13
Востаннє: 03.12.16
Повідомлень: 342

2014-06-09 01:31  
чудовий фільм, без жодних сумнівів раджу переглянути йогоHappy
specter85 
Новенький


З нами з: 27.09.10
Востаннє: 01.12.16
Повідомлень: 15

2014-11-09 00:46  
Дякую. Фільм супер, раніше дуже подобалась озвучка від гобліна. Фільми Гая Річі то бомба.
vova2804 
Свій


З нами з: 16.02.13
Востаннє: 28.11.16
Повідомлень: 144

2014-11-24 12:48  
taras1994 написано:
Дуже не цікавий фільм, не раджу дивитися, мені він не сподобався.

це один із кращих фільмів, який я бачив! шикарний склад акторів, гра, сюжет - все на висоті!

PETROVICHUA-007 
Новенький


З нами з: 29.07.13
Востаннє: 02.12.16
Повідомлень: 5

2014-11-25 13:44  
Друга частина краща
Virake 
Localize Team
Localize Team


З нами з: 07.07.09
Востаннє: 03.12.16
Повідомлень: 4050

2014-11-25 20:00  
немає другої частини
Кіндрат Книш 
VIP


З нами з: 13.02.13
Востаннє: 02.12.16
Повідомлень: 717

2014-11-25 21:21  
Напевно, йдеться про фільм Lock, Stock And Four Stolen Hooves. А ще є серіал.
OSx86 
Частий відвідувач


З нами з: 15.09.12
Востаннє: 12.11.16
Повідомлень: 39

2014-11-26 20:06  
taras1994 написано:
Дуже не цікавий фільм, не раджу дивитися, мені він не сподобався.


Кожному своє) крутий фільм

Ua.bos_01 
VIP


З нами з: 22.06.15
Востаннє: 02.12.16
Повідомлень: 1290

2015-08-15 12:04  
Пам'ятаю, як я цей фільм в перше переглянув, то і не зрозумів нічого, як все скінчилось :-) Переглянувши його другий раз я все допетрав. Непоганий фільм. Динамічний, з гумором, зі змістом. Раджу до перегляду.
davos5 
Частий відвідувач


З нами з: 16.10.11
Востаннє: 29.11.16
Повідомлень: 29

2016-02-07 10:11  
Останнім часом не бачив фільмів таких як даний. Тепер знімають однотипні.
Ваш часовий пояс: GMT + 2 Години

Нова тема   Відповісти