Завантажити та скачати торренти українською


Мамма мія! / Mamma mia! (2008) 720p Ukr/Eng | Sub Ukr/Eng

Нові коментарі

Нова тема   Відповісти
Автор Повідомлення
xfsthe 
Оцифрування книг Гуртом
Оцифрування книг Гуртом


З нами з: 13.02.11
Востаннє: 07.12.16
Повідомлень: 279

2012-09-07 20:08  
Мамма мія! / Mamma mia! (2008) 720p Ukr/Eng | Sub Ukr/Eng



Жанр: мюзикл, романтичний, комедія
Країна: США, Великобританія



Кіностудія / кінокомпанія: Universal Pictures, Littlestar, Playtone, Relativity Media
Режисер: Філліда Ллойд
Актори: Колін Ферт, Меріл Стріп, Пірс Броснан, Аманда Сейфрід, Стеллан Скарсґаард, Джулі Волтерс, Крістін Баранскі

Сюжет:
Це історія нареченої - молодої дівчини Софі, яка мріє щоб її до вівтаря супроводжував батько. Але так і не дізнавшись від матері хто ж насправді є її батьком, Софі вирішує знайти його самостійно...


Тривалість: 01:48:38
Якість: 720p
Відео:
кодек:
розмір кадру: 1280 x 544
бітрейт: 5 376 кб/с

Аудіо #1:
мова: українська
переклад: багатоголосий закадровий | ТРК Україна
кодек: 2.0
бітрейт: 192 кб/с

Аудіо #2:
мова: англійська
переклад: оригінал
кодек: 5.1
бітрейт: 1510 кб/с

Субтитри #1:
мова: українська
тип: програмні (м'які)
формат: *.srt

Субтитри #2:
мова: українська (форсовані, до пісень)
тип: програмні (м'які)
формат: *.srt

Субтитри #3:
мова: англійська
тип: програмні (м'які)
формат: *.srt
MediaInfo

General
Unique ID : 224126669342302651600325531422728848522 (0xA89D39F42F43CBB092766C1F403B048A)
Complete name : Mamma Mia! (2008) [ukr,eng] sub[ukr,eng] 720p.mkv
Format : Matroska
Format version : Version 2
File size : 5.37 GiB
Duration : 1h 48mn
Overall bit rate : 7 079 Kbps
Movie name : Mamma Mia! (2008) 720p
Encoded date : UTC 2012-09-24 17:05:08
Writing application : mkvmerge v5.7.0 ('The Whirlwind') built on Jul 8 2012 19:19:57
Writing library : libebml v1.2.3 + libmatroska v1.3.0

Video
ID : 1
Format : AVC
Format/Info : Advanced Video Codec
Format profile : [email protected]
Format settings, CABAC : Yes
Format settings, ReFrames : 5 frames
Codec ID : V_MPEG4/ISO/AVC
Duration : 1h 48mn
Bit rate : 5 376 Kbps
Width : 1 280 pixels
Height : 544 pixels
Display aspect ratio : 2.35:1
Frame rate : 23.976 fps
Color space : YUV
Chroma subsampling : 4:2:0
Bit depth : 8 bits
Scan type : Progressive
Bits/(Pixel*Frame) : 0.322
Stream size : 3.97 GiB (74%)
Title : Mamma Mia! (2008) 720p
Writing library : core 65 r1040M 1591275
Encoding settings : cabac=1 / ref=5 / deblock=1:0:0 / analyse=0x3:0x113 / me=hex / subme=9 / psy_rd=1.0:0.0 / mixed_ref=1 / me_range=16 / chroma_me=1 / trellis=1 / 8x8dct=1 / cqm=0 / deadzone=21,11 / chroma_qp_offset=-2 / threads=3 / nr=0 / decimate=0 / mbaff=0 / bframes=3 / b_pyramid=1 / b_adapt=2 / b_bias=0 / direct=1 / wpredb=1 / keyint=250 / keyint_min=25 / scenecut=40(pre) / rc=2pass / bitrate=5376 / ratetol=3.0 / qcomp=0.60 / qpmin=10 / qpmax=51 / qpstep=4 / cplxblur=20.0 / qblur=0.5 / ip_ratio=1.40 / pb_ratio=1.30 / aq=1:1.00
Language : English
Default : Yes
Forced : No

Audio #1
ID : 2
Format : AC-3
Format/Info : Audio Coding 3
Mode extension : CM (complete main)
Codec ID : A_AC3
Duration : 1h 48mn
Bit rate mode : Constant
Bit rate : 192 Kbps
Channel(s) : 2 channels
Channel positions : Front: L R
Sampling rate : 48.0 KHz
Bit depth : 16 bits
Compression mode : Lossy
Stream size : 149 MiB (3%)
Title : 2.0 @ 192 kbps | TPK Україна
Language : Ukrainian
Default : Yes
Forced : No

Audio #2
ID : 3
Format :
Format/Info : Digital Theater Systems
Codec ID : A_DTS
Duration : 1h 48mn
Bit rate mode : Constant
Bit rate : 1 510 Kbps
Channel(s) : 6 channels
Channel positions : Front: L C R, Side: L R, LFE
Sampling rate : 48.0 KHz
Bit depth : 24 bits
Compression mode : Lossy
Stream size : 1.15 GiB (21%)
Title : 5.1 @ 1510 kbps
Language : English
Default : No
Forced : No

Text #1
ID : 4
Format : UTF-8
Codec ID : S_TEXT/UTF8
Codec ID/Info : UTF-8 Plain Text
Language : Ukrainian
Default : No
Forced : No

Text #2
ID : 5
Format : UTF-8
Codec ID : S_TEXT/UTF8
Codec ID/Info : UTF-8 Plain Text
Title : Forced
Language : Ukrainian
Default : No
Forced : No

Text #3
ID : 6
Format : UTF-8
Codec ID : S_TEXT/UTF8
Codec ID/Info : UTF-8 Plain Text
Language : English
Default : No
Forced : No
Світлини





Джерело:
Особиста оцінка: 10 - без зайвих вагань рекомендую всім!

Дякую панові MutuLI за надану українську звукову доріжку.


 Трекер:    Зареєстрований   

Завантажити / скачати фільм українською



відео для новачків



 Зареєстрований:   2012-09-24 19:26
 Розмір:   5.37 GB 
 Оцінка фільму:   9/10 (Голосів: 11)
   
Інші релізи
   Мамма мія! / Mamma Mia! (2008) Ukr/Eng | Sub Ukr/Eng MutuLI  9 / 0   1.99 GB   2012-09-20 14:49 
merlot 
Частий відвідувач


З нами з: 19.03.11
Востаннє: 08.12.16
Повідомлень: 32

2012-09-08 00:09  
легкий і позитивний мюзикл , дуже гарна природа
DеLight 
Відео Гуртом - фільмокрай
Відео Гуртом - фільмокрай


З нами з: 24.08.11
Востаннє: 17.11.16
Повідомлень: 663

2012-09-24 23:19  
Хотів переглянути - хороші актори, але:
xfsthe написано:
Жанр: мюзикл
... і різко передумав, не моє.
xfsthe 
Оцифрування книг Гуртом
Оцифрування книг Гуртом


З нами з: 13.02.11
Востаннє: 07.12.16
Повідомлень: 279

2012-09-25 10:08  
Delight` написано:
і різко передумав, не моє.

я теж недолюблюю мюзикли, але цей - дуже гарний і цікавий фільм, і пісні хороші. Раджу подивитися, особливо, якщо з дівчиною.

MutuLI 
Відео Гуртом - фільмокрай
Відео Гуртом - фільмокрай


З нами з: 08.03.09
Востаннє: 09.12.16
Повідомлень: 1252

2012-09-25 18:55  
Delight` написано:

Хотів переглянути - хороші актори, але: xfsthe написано:
Жанр: мюзикл
... і різко передумав, не моє.


Ну фільм позитивний, хороші пісні, але я до кінця не зміг додивитись. Фільм більше розрахований на любителів жанру, хоч композиції дійсно супер.

leroykendall 
Модератор HD


З нами з: 03.01.11
Востаннє: 20.11.16
Повідомлень: 749

2013-01-13 18:56  
Мюзікл - супер.
Шанувальникам гурту АББА дивитись обов'язково.

Ваш часовий пояс: GMT + 2 Години

Нова тема   Відповісти