Завантажити та скачати торренти українською


Хлоя: Секс найманка / Chloe (2009) 720p Ukr/Eng | Sub Eng

Нові коментарі

Нова тема   Відповісти
Автор Повідомлення
xfsthe 
Оцифрування книг Гуртом
Оцифрування книг Гуртом


З нами з: 13.02.11
Востаннє: 01.12.16
Повідомлень: 279

2012-09-07 19:37  
Хлоя: Секс найманка / Chloe (2009) 720p Ukr/Eng | Sub Eng



Жанр: драма, трилер
Країна: США, Канада, Франція



Кіностудія / кінокомпанія: Studio Canal, Montecito Picture Company
Режисер: Атом Егоян
Актори: Джуліана Мур, Лайам Нісон, Аманда Сейфрід, Макс Тіріот, Р.Х. Томсон, Ніна Добрев, Мішу Веллані, Джулі Кхенер, Лора де Картерет, Наталі Лісінська, Тіффані Лінделл-Найт, Меган Хефферн, Тамсен МакДоною, Катрін Крітмаа, Арлін Дункан

Сюжет:
Кетрін - лікар, Девід - професор, у них прекрасний син. На перший погляд, це ідеальна сім'я. Але одного разу Девід запізнюється на літак і пропускає сімейне свято. З цього моменту Кетрін починає підозрювати чоловіка у зраді. Жінка укладає угоду з Хлоєю, яка має спокусити Девіда і надати докладний звіт. Але з часом звіти стають все більш сухими, а зустрічі двох жінок - все частішими...


Тривалість: 01:36:00
Якість: 720p
Відео:
кодек:
розмір кадру: 1280 x 720
бітрейт: 5 061 кб/с

Аудіо #1:
мова: українська
переклад: багатоголосий закадровий | Line
кодек: 5.1
бітрейт: 384 кб/с

Аудіо #2:
мова: англійська
переклад: оригінал
кодек: 5.1
бітрейт: 1510 кб/с

Субтитри:
мова: англійська
тип: програмні (м'які)
формат: *.srt
MediaInfo

General
Unique ID : 130513357854991752037707583208326494061 (0x622FF559EF4C9562DBBFC8486BC8F76D)
Complete name : Chloe (2009) [ukr,eng] sub[eng] 720p.mkv
Format : Matroska
Format version : Version 2
File size : 4.63 GiB
Duration : 1h 36mn
Overall bit rate : 6 898 Kbps
Movie name : Хлоя: Секс найманка / Chloe (2009) 720p
Encoded date : UTC 2012-09-07 17:09:19
Writing application : mkvmerge v5.7.0 ('The Whirlwind') built on Jul 8 2012 19:19:57
Writing library : libebml v1.2.3 + libmatroska v1.3.0

Video
ID : 1
Format : AVC
Format/Info : Advanced Video Codec
Format profile : [email protected]
Format settings, CABAC : Yes
Format settings, ReFrames : 8 frames
Codec ID : V_MPEG4/ISO/AVC
Duration : 1h 36mn
Bit rate : 5 061 Kbps
Width : 1 280 pixels
Height : 720 pixels
Display aspect ratio : 16:9
Frame rate : 24.000 fps
Color space : YUV
Chroma subsampling : 4:2:0
Bit depth : 8 bits
Scan type : Progressive
Bits/(Pixel*Frame) : 0.229
Stream size : 3.26 GiB (71%)
Title : Хлоя: Секс найманка / Chloe (2009) 720p
Writing library : core 88 r1471 1144615
Encoding settings : cabac=1 / ref=8 / deblock=1:-3:-3 / analyse=0x3:0x113 / me=umh / subme=9 / psy=1 / psy_rd=1.05:0.10 / mixed_ref=1 / me_range=32 / chroma_me=1 / trellis=2 / 8x8dct=1 / cqm=2 / deadzone=21,11 / fast_pskip=0 / chroma_qp_offset=-2 / threads=6 / sliced_threads=0 / nr=0 / decimate=1 / mbaff=0 / constrained_intra=0 / bframes=3 / b_pyramid=2 / b_adapt=2 / b_bias=0 / direct=3 / wpredb=1 / wpredp=2 / keyint=250 / keyint_min=25 / scenecut=40 / intra_refresh=0 / rc_lookahead=60 / rc=2pass / mbtree=1 / bitrate=5061 / ratetol=1.0 / qcomp=0.60 / qpmin=10 / qpmax=51 / qpstep=4 / cplxblur=20.0 / qblur=0.5 / vbv_maxrate=50000 / vbv_bufsize=50000 / ip_ratio=1.40 / aq=1:0.60
Language : English
Default : Yes
Forced : No

Audio #1
ID : 2
Format : AC-3
Format/Info : Audio Coding 3
Mode extension : CM (complete main)
Codec ID : A_AC3
Duration : 1h 36mn
Bit rate mode : Constant
Bit rate : 384 Kbps
Channel(s) : 6 channels
Channel positions : Front: L C R, Side: L R, LFE
Sampling rate : 48.0 KHz
Bit depth : 16 bits
Compression mode : Lossy
Stream size : 264 MiB (6%)
Title : 5.1 @ 384 kbps
Language : Ukrainian
Default : Yes
Forced : No

Audio #2
ID : 3
Format :
Format/Info : Digital Theater Systems
Codec ID : A_DTS
Duration : 1h 36mn
Bit rate mode : Constant
Bit rate : 1 510 Kbps
Channel(s) : 6 channels
Channel positions : Front: L C R, Side: L R, LFE
Sampling rate : 48.0 KHz
Bit depth : 24 bits
Compression mode : Lossy
Stream size : 1.01 GiB (22%)
Title : 5.1 @ 1510 kbps
Language : English
Default : No
Forced : No

Text
ID : 4
Format : UTF-8
Codec ID : S_TEXT/UTF8
Codec ID/Info : UTF-8 Plain Text
Language : English
Default : No
Forced : No
Світлини





Джерело: &&
Особиста оцінка: 10 - без зайвих вагань рекомендую всім!


 Трекер:    Зареєстрований   

Завантажити / скачати фільм українською



відео для новачків



 Зареєстрований:   2012-09-07 19:37
 Розмір:   4.63 GB 
 Оцінка фільму:   8.7/10 (Голосів: 14)
   
Інші релізи
   Хлоя: Секс найманка / Chloe (2009) Ukr | Sub Eng karvai0  13 / 0   1.33 GB   2012-09-07 13:23 
   Хлоя / Chloe (2009) 720p-mini Ukr/Eng Aradesh  3 / 0   2.2 GB   2010-05-11 16:59 
   Хлоя / Chloe (2009) Skiff  3 / 0   1.34 GB   2010-04-25 01:19 
karvai0 
Відео Гуртом - запис з ТБ
Відео Гуртом - запис з ТБ


З нами з: 18.01.10
Востаннє: 09.09.16
Повідомлень: 3686

2012-09-07 20:38  
яке двд? це лайн в центральному каналі
ratbol 
Модератор HD


З нами з: 03.02.09
Востаннє: 01.12.16
Повідомлень: 1088

2012-09-07 21:24  
xfsthe
Так, справді, на двд української доріжки не було. Вказати справжнє джерело доріжки.

xfsthe 
Оцифрування книг Гуртом
Оцифрування книг Гуртом


З нами з: 13.02.11
Востаннє: 01.12.16
Повідомлень: 279

2012-09-07 21:29  
karvai0 написано:
це лайн в центральному каналі

я взяв українську доріжку з релізу http://toloka.to/t18367 і, відповідно опис взяв звідти.

Віктор 
Відео Гуртом - субтитрування
Відео Гуртом - субтитрування


З нами з: 09.01.10
Востаннє: 04.12.16
Повідомлень: 8663

2012-09-07 21:43  
xfsthe написано:
я взяв українську доріжку з релізу http://toloka.to/t18367 і, відповідно опис взяв звідти.

Там інформація не відповідає дійсності. На гуртом раніше взагалі на бум святих писали - блюрей, двд, а чи виходило, чи ні, кому яка різниця.

nissal 
Свій


З нами з: 14.04.11
Востаннє: 21.12.14
Повідомлень: 78

2012-10-07 11:06  
Хороший фільм. Життєво, приємно оку і думці Happy Дякую! 7
Ваш часовий пояс: GMT + 2 Години

Нова тема   Відповісти