Завантажити та скачати торренти українською


Ірландець / The Guard (2011) 720p Ukr/Eng | Sub Eng

Нові коментарі

Нова тема   Відповісти
Автор Повідомлення
4erkov 
Відео Гуртом - запис з ТБ
Відео Гуртом - запис з ТБ


З нами з: 09.10.10
Востаннє: 09.12.16
Повідомлень: 1846

2012-09-07 05:49  
Ірландець / The Guard (2011) 720p Ukr/Eng | Sub Eng

Ірландець / The Guard (2011) 720p Ukr/Eng | Sub Eng
Офіційний укр. постер

Жанр: трилер, комедія, кримінал
Країна: Ірландія

Кіностудія / кінокомпанія: Crescendo Productions
Режисер: Джон Майкл МакДона
Актори: Брендан Глісон, Дон Чідл, Марк Стронг, Ліам Каннінгем, Фіоннула Фленаган, Девід Вілмот, Лоуренс Кінлан, Катаріна Кес, Домінік МакЕллігот, Гарі Лайдон
Сюжет:
Жінки, випивка і веселі жарти - ось радощі добродушного ірландського поліцейського, сержанта Джеррі Бойла. Він ніколи не подумував про геройство, поки одного разу в Дубліні не з'явився агент ФБР, який закликав невдалого служителя порядку допомогти йому накрити міжнародну банду наркоторговців. Чи зможуть спрацюватися веселий рудий ірландець і рішучий афроамериканець? Адже справа, за яку вони взялися, виявиться такою ж непередбачуваною, як і вони самі...

Тривалість: 01:35:50
Якість: [ріп від DON]
Відео:
кодек:
розмір кадру: 1280 х 544
бітрейт: 5832 кб/с

Аудіо:
мова: українська
переклад: багатоголосий закадровий
кодек: 2.0
бітрейт: 192 кб/с

Аудіо # 2:
мова: англійська
переклад: оригінал
кодек: 5.1
бітрейт: 1510 кб/с

Субтитри:
мова: англійська
тип: програмні (м'які)
формат: *.srt
Переклад виконано і озвучено:
Студією "KWA Sound Production" на замовлення "Артхаус-Трафік". Джерело: DVD
Ролі озвучили: Наталя Романько, Євген Малуха та Максим Кондратюк
Скріншоти







Media-Info
General
Unique ID : 226463866513571962109211225236415882534 (0xAA5F5AABCDCF8C2698922DFE1DFEA526)
Complete name : D:\Релізи\Movies\The Guard (2011) [ukr,eng] 720p [Hurtom].mkv
Format : Matroska
Format version : Version 2
File size : 5.04 GiB
Duration : 1h 35mn
Overall bit rate : 7 531 Kbps
Movie name : DON & Hurtom
Encoded date : UTC 2012-09-06 17:04:47
Writing application : mkvmerge v5.6.0 ('Kenya Kane') built on May 27 2012 16:44:04
Writing library : libebml v1.2.3 + libmatroska v1.3.0

Video
ID : 1
Format : AVC
Format/Info : Advanced Video Codec
Format profile : [email protected]
Format settings, CABAC : Yes
Format settings, ReFrames : 12 frames
Codec ID : V_MPEG4/ISO/AVC
Duration : 1h 35mn
Bit rate : 5 832 Kbps
Width : 1 280 pixels
Height : 544 pixels
Display aspect ratio : 2.35:1
Frame rate : 23.976 fps
Color space : YUV
Chroma subsampling : 4:2:0
Bit depth : 8 bits
Scan type : Progressive
Bits/(Pixel*Frame) : 0.349
Stream size : 3.80 GiB (75%)
Title : 720p
Writing library : core 120 r2120 0c7dab9
Encoding settings : cabac=1 / ref=12 / deblock=1:-3:-3 / analyse=0x3:0x113 / me=tesa / subme=11 / psy=1 / psy_rd=1.05:0.05 / mixed_ref=1 / me_range=32 / chroma_me=1 / trellis=2 / 8x8dct=1 / cqm=0 / deadzone=21,11 / fast_pskip=0 / chroma_qp_offset=-3 / threads=6 / sliced_threads=0 / nr=0 / decimate=0 / interlaced=0 / bluray_compat=0 / constrained_intra=0 / bframes=7 / b_pyramid=2 / b_adapt=2 / b_bias=0 / direct=3 / weightb=1 / open_gop=0 / weightp=2 / keyint=250 / keyint_min=23 / scenecut=40 / intra_refresh=0 / rc_lookahead=60 / rc=2pass / mbtree=1 / bitrate=5832 / ratetol=1.0 / qcomp=0.60 / qpmin=0 / qpmax=69 / qpstep=4 / cplxblur=20.0 / qblur=0.5 / vbv_maxrate=38000 / vbv_bufsize=30000 / nal_hrd=none / ip_ratio=1.40 / aq=1:0.70
Language : English
Default : Yes
Forced : No

Audio #1
ID : 2
Format : AC-3
Format/Info : Audio Coding 3
Mode extension : CM (complete main)
Format settings, Endianness : Big
Codec ID : A_AC3
Duration : 1h 35mn
Bit rate mode : Constant
Bit rate : 192 Kbps
Channel(s) : 2 channels
Channel positions : Front: L R
Sampling rate : 48.0 KHz
Bit depth : 16 bits
Compression mode : Lossy
Stream size : 132 MiB (3%)
Title : KWA Sound Production
Language : Ukrainian
Default : Yes
Forced : No

Audio #2
ID : 3
Format :
Format/Info : Digital Theater Systems
Codec ID : A_DTS
Duration : 1h 35mn
Bit rate mode : Constant
Bit rate : 1 510 Kbps
Channel(s) : 6 channels
Channel positions : Front: L C R, Side: L R, LFE
Sampling rate : 48.0 KHz
Bit depth : 24 bits
Compression mode : Lossy
Delay relative to video : 11ms
Stream size : 1.01 GiB (20%)
Title : Original
Language : English
Default : No
Forced : No

Text
ID : 4
Format : UTF-8
Codec ID : S_TEXT/UTF8
Codec ID/Info : UTF-8 Plain Text
Language : English
Default : No
Forced : No

Menu
00:00:00.000 : en:Chapter 01
00:06:52.037 : en:Chapter 02
00:12:38.299 : en:Chapter 03
00:16:27.195 : en:Chapter 04
00:26:50.651 : en:Chapter 05
00:29:43.407 : en:Chapter 06
00:34:01.915 : en:Chapter 07
00:37:51.561 : en:Chapter 08
00:46:52.393 : en:Chapter 09
00:50:18.349 : en:Chapter 10
00:54:05.826 : en:Chapter 11
01:03:24.342 : en:Chapter 12
01:09:28.206 : en:Chapter 13
01:15:43.789 : en:Chapter 14
01:22:26.275 : en:Chapter 15
01:27:44.426 : en:Chapter 16

Джерело: Висловлюю подяку п. Tarasyk та DVO за допомогу. Зведення - 4erkov.
Особиста оцінка: 9 - мені сподобалося


 Трекер:    Зареєстрований   

Завантажити / скачати фільм українською



відео для новачків



 Зареєстрований:   2012-09-07 05:49
 Розмір:   5.04 GB 
 Оцінка фільму:   9.3/10 (Голосів: 21)
   
Інші релізи
   Ірландець / The Guard (2011) Ukr/Eng | Sub Eng 4erkov  16 / 0   1.59 GB   2012-09-06 21:29 
Eugenio 
Новенький


З нами з: 10.07.09
Востаннє: 06.12.16
Повідомлень: 4

2012-09-07 14:18  
Кіно відпадне, свого часу подивився його з великим задоволенням.
Valentyna_M 
Новенький


З нами з: 12.03.11
Востаннє: 08.12.16
Повідомлень: 16

2012-09-07 18:58  
Чому б не зробити роздачу золотою?
На превеликий жаль швидкість завантаження у мене значно перевищує швидкість віддачі (((

asu 
Новенький


З нами з: 14.01.09
Востаннє: 08.12.16
Повідомлень: 11

2013-01-12 20:43  
Фільм просто чудовий. Глісон вкотре довів, що є неперевершеним актором, який самотужки може створити у фільмі особливий настрій.
leroykendall 
Модератор HD


З нами з: 03.01.11
Востаннє: 20.11.16
Повідомлень: 749

2013-01-13 10:38  
Valentyna_M написано:
Чому б не зробити роздачу золотою?

Для того щоб ті що завантажили залишались на роздачі якомога довше.

Skovorodkin1985 
Новенький


З нами з: 09.01.15
Востаннє: 23.10.16
Повідомлень: 3

2016-07-19 19:07  
Спасибі за гарний фільм!
Ваш часовий пояс: GMT + 2 Години

Нова тема   Відповісти