Завантажити та скачати торренти українською


Ніжність / La délicatesse (2011) 1080p Ukr/Fre

Нові коментарі

Нова тема   Відповісти
Автор Повідомлення
ratbol 
Модератор HD


З нами з: 03.02.09
Востаннє: 09.12.16
Повідомлень: 1088

2012-09-06 07:52  
Ніжність / La délicatesse (2011) 1080p Ukr/Fre


Жанр: романтична комедія
Країна: Франція



Кіностудія / кінокомпанія: 2.4.7. Films, France 2 Cinéma, StudioCanal та інші
Режисер: Девід Фоенкінос, Стефан Фоенкінос
Актори: Одрі Тоту, Франсуа Дамієнс, Бруно Тодескіні, Мелані Барн’є, Жозефін де Мо та інші.

Сюжет:
Службовий роман по-французьки. Після смерті коханого чоловіка Наталі (Одрі Тоту) з головою йде в роботу, відкидаючи будь-які чоловічі спроби познайомитися з нею ближче. Одного разу в робочому кабінеті, піддавшись раптовому пориву, героїня цілує свого колегу Маркуса (Франсуа Дамьен) - зовні нічим не примітного, незграбного і неохайно одягнутого співробітника. Розцінивши поцілунок як сигнал до дії, зачарований і по вуха закоханий Маркус починає наполегливо залицятися до предмета свого обожнювання і на превеликий подив навколишніх, йому поступово вдається розтопити серце неприступної Наталі.


Тривалість: 01:49:16
Якість:
Відео:
кодек:
розмір кадру: 1920 х 1040
бітрейт: 10,5 Мб/с

Аудіо #1:
мова: українська
переклад: багатоголосий закадровий | DVD
кодек: 5.1
бітрейт: 448 кб/с

Аудіо #2:
мова: французька
переклад: оригінал
кодек: 5.1
бітрейт: 1536 кб/с

Джерело озвучення:


Оригінальні розділи:
Збережено

MediaInfo
Код:
General
Unique ID                        : 244772906811407656184844194793355752403 (0xB8258C0D7405585BBE51FE08541433D3)
Complete name                    : E:\MOVIES\movie releases\La délicatesse (2011)\La délicatesse (2011) [Ukr, Fre] 1080p.mkv
Format                           : Matroska
Format version                   : Version 2
File size                        : 9.51 GiB
Duration                         : 1h 49mn
Overall bit rate                 : 12.5 Mbps
Movie name                       : La délicatesse (2011) [Hurtom]
Encoded date                     : UTC 2012-09-04 18:50:34
Writing application              : mkvmerge v5.6.0 ('Kenya Kane') built on May 27 2012 16:44:04
Writing library                  : libebml v1.2.3 + libmatroska v1.3.0

Video
ID                               : 1
Format                           : AVC
Format/Info                      : Advanced Video Codec
Format profile                   : [email protected]
Format settings, CABAC           : Yes
Format settings, ReFrames        : 4 frames
Codec ID                         : V_MPEG4/ISO/AVC
Duration                         : 1h 49mn
Bit rate                         : 10.5 Mbps
Width                            : 1 920 pixels
Height                           : 1 040 pixels
Display aspect ratio             : 16:9
Frame rate                       : 23.976 fps
Color space                      : YUV
Chroma subsampling               : 4:2:0
Bit depth                        : 8 bits
Scan type                        : Progressive
Bits/(Pixel*Frame)               : 0.219
Stream size                      : 7.82 GiB (82%)
Writing library                  : core 122 r2184 5c85e0a
Encoding settings                : cabac=1 / ref=4 / deblock=1:-3:-3 / analyse=0x3:0x133 / me=umh / subme=11 / psy=1 / psy_rd=1.00:0.00 / mixed_ref=1 / me_range=32 / chroma_me=1 / trellis=2 / 8x8dct=1 / cqm=0 / deadzone=21,11 / fast_pskip=1 / chroma_qp_offset=-2 / threads=6 / sliced_threads=0 / nr=0 / decimate=1 / interlaced=0 / bluray_compat=0 / constrained_intra=0 / bframes=6 / b_pyramid=2 / b_adapt=2 / b_bias=0 / direct=2 / weightb=0 / open_gop=0 / weightp=2 / keyint=240 / keyint_min=23 / scenecut=40 / intra_refresh=0 / rc_lookahead=40 / rc=2pass / mbtree=1 / bitrate=10500 / ratetol=1.0 / qcomp=0.60 / qpmin=0 / qpmax=69 / qpstep=4 / cplxblur=20.0 / qblur=0.5 / ip_ratio=1.40 / aq=1:1.00 / zones=151374,157200,q=40
Language                         : English
Default                          : Yes
Forced                           : No

Audio #1
ID                               : 2
Format                           : AC-3
Format/Info                      : Audio Coding 3
Mode extension                   : CM (complete main)
Codec ID                         : A_AC3
Duration                         : 1h 49mn
Bit rate mode                    : Constant
Bit rate                         : 448 Kbps
Channel(s)                       : 6 channels
Channel positions                : Front: L C R, Side: L R, LFE
Sampling rate                    : 48.0 KHz
Bit depth                        : 16 bits
Compression mode                 : Lossy
Delay relative to video          : 2s 0ms
Stream size                      : 350 MiB (4%)
Title                            : 5.1 [448 Kbps] — багатоголосий закадровий | DVD
Language                         : Ukrainian
Default                          : Yes
Forced                           : No

Audio #2
ID                               : 3
Format                           :
Format/Info                      : Digital Theater Systems
Codec ID                         : A_DTS
Duration                         : 1h 49mn
Bit rate mode                    : Constant
Bit rate                         : 1 510 Kbps
Channel(s)                       : 6 channels
Channel positions                : Front: L C R, Side: L R, LFE
Sampling rate                    : 48.0 KHz
Bit depth                        : 24 bits
Compression mode                 : Lossy
Delay relative to video          : 7s 750ms
Stream size                      : 1.15 GiB (12%)
Title                            : 5.1 [1536 Kbps] — оригінал
Language                         : French
Default                          : No
Forced                           : No

Menu
00:00:00.000                     : :Chapter 01
00:09:05.419                     : :Chapter 02
00:18:26.605                     : :Chapter 03
00:27:31.149                     : :Chapter 04
00:36:58.841                     : :Chapter 05
00:46:49.181                     : :Chapter 06
00:56:16.081                     : :Chapter 07
01:05:49.779                     : :Chapter 08
01:15:46.166                     : :Chapter 09
01:25:41.553                     : :Chapter 10
01:35:43.320                     : :Chapter 11
01:45:10.387                     : :Chapter 12
01:49:15.632                     : :Chapter 13


Цитата:
Українська доріжка підігнана під відеоряд, як і французька.


Джерело: &
Особиста оцінка: 7 - "Амелі" сподобався більше.


 Трекер:    Зареєстрований   

Завантажити / скачати фільм українською



відео для новачків



 Зареєстрований:   2012-09-06 07:53
 Розмір:   9.51 GB 
 Оцінка фільму:   8.5/10 (Голосів: 8)
   
Інші релізи
   Ніжність / La délicatesse (2011) vamp69  11 / 0   1.64 GB   2012-06-14 15:44 
waldi-hurtom 
VIP


З нами з: 07.10.12
Востаннє: 09.12.16
Повідомлень: 613

2012-11-25 23:01  
Чи не найгіршій французький фільм. Таке враження, що сценарист та режисер - жінки (хоча це не так). Операторська робота теж не вражає. Як на мене, гра і роль Одрі теж дуже слабкі, розчарований усім. Але дружині сподобалась Одрі Тату та її незкінченні вишукані вбрання. Тільки для жінок!
Ваш часовий пояс: GMT + 2 Години

Нова тема   Відповісти