Завантажити та скачати торренти українською


Лемоні Снікет: Тридцять три нещастя / 33 лиха / Lemony Snicket's A Series of Unfortunate Events (2004) 720p Ukr/Eng | Sub Eng

Нові коментарі

Нова тема   Відповісти
Автор Повідомлення
DеLight 
Відео Гуртом - фільмокрай
Відео Гуртом - фільмокрай


З нами з: 24.08.11
Востаннє: 17.11.16
Повідомлень: 664

2012-09-05 23:38  
Лемоні Снікет: Тридцять три нещастя / 33 лиха / Lemony Snicket's A Series of Unfortunate Events (2004) 720p Ukr/Eng | Sub Eng

Лемоні Снікет: Тридцять три нещастя / 33 лиха / Lemony Snicket's A Series of Unfortunate Events (2004) 720p Ukr/Eng | Sub Eng

«Darkening theaters December 17.»


Альтернативні обкладинки






Жанр: комедія, пригодницький, сімейний
Країна: США, Німеччина



Кіностудія / кінокомпанія: DreamWorks Pictures, Kumar Mobiliengesellschaft mbH & Co. Projekt Nr. 2 KG, Nickelodeon Movies, Paramount Pictures, Scott Rudin Productions


Бред Сілберлінг / Brad Silberling

Джим Керрі / Jim Carrey, Ліам Айкен / Liam Aiken, Емілі Бровнінг / Emily Browning, Кара Гоффман / Kara Hoffman, Шелбі Хоффман / Shelby Hoffman, Джуд Лоу / Jude Law, Тімоті Спалл / Timothy Spall, Катрін О’Хара / Catherine O'Hara, Біллі Конноллі / Billy Connolly, Меріл Стріп / Meryl Streep, Луїс Гузман / Luis Guzmán, Джеймі Харріс / Jamie Harris, Крейг Фергусон /Craig Ferguson, Дженніфер Кулідж / Jennifer Coolidge, Джейн Адамс / Jane Adams

Одного похмурого дня на юних Бодлер - Вайолет, Клауса і їх маленьку сестричку Санні - звалилися нещастя. Страшна пожежа позбавила їх будинку і люблячих батьків. У житті сиріт з'явився опікун Граф Олаф, який, як виявилося, зовсім не граф, а злий геній, актор і майстер перевдягань, що прагне заволодіти спадком нещасних дітей...
У основу цього фільму лягли декілька перших книг з популярної дитячої серії "Лемоні Снікет: Серія нещасливих подій", написаної письменником Деніелом Хедлером під псевдонімом Лемоні Снікет.



Номінації/Нагороди

Оскар, 2005



Переможець (1): » Кращий грим

Номінації (3):
» Кращі декорації
» Кращі костюми
» Кращий саундтрек

Премія каналу «MTV», 2005



Номінації (1):
» Кращий злодій (Джим Керрі)

Сатурн, 2005



Номінації (2):
» Кращий фентезі-фільм
» Кращий грим

Сатурн, 2006



Номінації (1):
» Краще спеціальне DVD-видання



Тривалість: 01:47:59
Якість: 720p [ріп від DON]

Відео:
кодек:
розмір кадру: 1280 x 720
бітрейт: 5,5 Мб/с

Аудіо #1:
мова: українська
переклад: двоголосий закадровий
кодек: 5.1
бітрейт: 448 кб/с

Джерело озвучення:


Аудіо #2:
мова: аннглійська
переклад: оригінал
кодек: 5.1
бітрейт: 1510 кб/с

Субтитри #1: на мову Санні
мова: українська
тип: програмні (м'які)
формат: *.srt

Субтитри #2: Sunny's speach
мова: англійська
тип: програмні (м'які)
формат: *.srt

Субтитри #3: повні
мова: англійська
тип: програмні (м'які)
формат: *.srt

Субтитри #4: SDH
мова: англійська
тип: програмні (м'які)
формат: *.srt

Збережені оригінальні чаптери як на Blu-ray



->переглянути<-

Код:
General
Unique ID                      : 228985798468540650082079752688441433208 (0xAC450F8433CF99F4865A5D1DE4B71C78)
Complete name                  : D:\Torrents\Lemony Snicket's A Series of Unfortunate Events (2004) 720p [Ukr, Eng] [Hurtom & HDClub].mkv
Format                         : Matroska
Format version                 : Version 2
File size                      : 5.62 GiB
Duration                       : 1h 47mn
Overall bit rate               : 7 458 Kbps
Movie name                     : Lemony Snicket`s A Series of Unfortunate Events (2004) 720p [Ukr, Eng] [Hurtom & HDClub] by Delight
Encoded date                   : UTC 2012-09-16 21:21:56
Writing application            : mkvmerge v5.8.0 ('No Sleep / Pillow') built on Sep  2 2012 15:37:04
Writing library                : libebml v1.2.3 + libmatroska v1.3.0

Video
ID                             : 1
Format                         : AVC
Format/Info                    : Advanced Video Codec
Format profile                 : [email protected]
Format settings, CABAC         : Yes
Format settings, ReFrames      : 9 frames
Codec ID                       : V_MPEG4/ISO/AVC
Duration                       : 1h 47mn
Bit rate                       : 5 500 Kbps
Width                          : 1 280 pixels
Height                         : 720 pixels
Display aspect ratio           : 16:9
Frame rate mode                : Constant
Frame rate                     : 23.976 fps
Color space                    : YUV
Chroma subsampling             : 4:2:0
Bit depth                      : 8 bits
Scan type                      : Progressive
Bits/(Pixel*Frame)             : 0.249
Stream size                    : 4.04 GiB (72%)
Title                          : Lemony Snicket`s A Series of Unfortunate Events (2004) 720p
Writing library                : core 116 r2057 0ba8a9c
Encoding settings              : cabac=1 / ref=9 / deblock=1:-3:-3 / analyse=0x3:0x133 / me=umh / subme=10 / psy=1 / psy_rd=1.00:0.00 / mixed_ref=1 / me_range=32 / chroma_me=1 / trellis=2 / 8x8dct=1 / cqm=0 / deadzone=21,11 / fast_pskip=0 / chroma_qp_offset=-2 / threads=14 / sliced_threads=0 / nr=0 / decimate=0 / interlaced=0 / bluray_compat=0 / constrained_intra=0 / bframes=7 / b_pyramid=2 / b_adapt=2 / b_bias=0 / direct=3 / weightb=1 / open_gop=0 / weightp=2 / keyint=250 / keyint_min=23 / scenecut=40 / intra_refresh=0 / rc_lookahead=40 / rc=2pass / mbtree=0 / bitrate=5500 / ratetol=1.0 / qcomp=0.65 / qpmin=0 / qpmax=40 / qpstep=4 / cplxblur=20.0 / qblur=0.5 / vbv_maxrate=50000 / vbv_bufsize=50000 / nal_hrd=none / ip_ratio=1.25 / pb_ratio=1.25 / aq=1:0.65
Language                       : English
Default                        : Yes
Forced                         : No

Audio #1
ID                             : 2
Format                         : AC-3
Format/Info                    : Audio Coding 3
Mode extension                 : CM (complete main)
Format settings, Endianness    : Big
Codec ID                       : A_AC3
Duration                       : 1h 47mn
Bit rate mode                  : Constant
Bit rate                       : 448 Kbps
Channel(s)                     : 6 channels
Channel positions              : Front: L C R, Side: L R, LFE
Sampling rate                  : 48.0 KHz
Bit depth                      : 16 bits
Compression mode               : Lossy
Stream size                    : 346 MiB (6%)
Title                          : 5.1; 448 kbps; двоголосий закадровий {Новий канал}
Language                       : Ukrainian
Default                        : Yes
Forced                         : No

Audio #2
ID                             : 3
Format                         :
Format/Info                    : Digital Theater Systems
Codec ID                       : A_DTS
Duration                       : 1h 47mn
Bit rate mode                  : Constant
Bit rate                       : 1 510 Kbps
Channel(s)                     : 6 channels
Channel positions              : Front: L C R, Side: L R, LFE
Sampling rate                  : 48.0 KHz
Bit depth                      : 24 bits
Compression mode               : Lossy
Stream size                    : 1.14 GiB (20%)
Title                          : 5.1; ~1536 kbps; original
Language                       : English
Default                        : No
Forced                         : No

Text #1
ID                             : 4
Format                         : UTF-8
Codec ID                       : S_TEXT/UTF8
Codec ID/Info                  : UTF-8 Plain Text
Title                          : на мову Санні
Language                       : Ukrainian
Default                        : Yes
Forced                         : Yes

Text #2
ID                             : 5
Format                         : UTF-8
Codec ID                       : S_TEXT/UTF8
Codec ID/Info                  : UTF-8 Plain Text
Title                          : Sunny's speach
Language                       : English
Default                        : No
Forced                         : No

Text #3
ID                             : 6
Format                         : UTF-8
Codec ID                       : S_TEXT/UTF8
Codec ID/Info                  : UTF-8 Plain Text
Title                          : full
Language                       : English
Default                        : No
Forced                         : No

Text #4
ID                             : 7
Format                         : UTF-8
Codec ID                       : S_TEXT/UTF8
Codec ID/Info                  : UTF-8 Plain Text
Title                          : SDH
Language                       : English
Default                        : No
Forced                         : No

Menu
00:00:00.000                   : :00:00:00.000
00:06:49.534                   : :00:06:49.534
00:12:48.642                   : :00:12:48.642
00:20:24.890                   : :00:20:24.890
00:28:22.367                   : :00:28:22.367
00:36:31.063                   : :00:36:31.063
00:42:30.839                   : :00:42:30.839
00:48:05.757                   : :00:48:05.757
00:54:32.060                   : :00:54:32.060
01:03:02.028                   : :01:03:02.028
01:08:20.262                   : :01:08:20.262
01:14:42.603                   : :01:14:42.603
01:19:35.687                   : :01:19:35.687
01:25:51.688                   : :01:25:51.688
01:30:05.608                   : :01:30:05.608
01:35:59.170                   : :01:35:59.170




->переглянути<-















Джерело: &
Подяка tarick за запис звуку і створення доріжки 5.1 та jonas93 за надану доріжку
Особиста оцінка: 8 - мені сподобалося


Торент оновлено - замінено українську доріжку 2.0 на 5.1. Прохання перезавантажити!


Срібний реліз (на рейтинг впливає 50% завантаженого)
 Трекер:    Зареєстрований   

Завантажити / скачати фільм українською



відео для новачків



 Зареєстрований:   2012-09-16 23:48
 Розмір:   5.62 GB 
 Оцінка фільму:   10/10 (Голосів: 20)
   
taras1994 
Почесний оцифрувальник літератури


З нами з: 23.03.12
Востаннє: 30.11.16
Повідомлень: 5096

2012-09-06 09:46  
Це казковий фільм?
DеLight 
Відео Гуртом - фільмокрай
Відео Гуртом - фільмокрай


З нами з: 24.08.11
Востаннє: 17.11.16
Повідомлень: 664

2012-09-06 10:01  
taras1994 написано:
Це казковий фільм?

Щось типу того, відмінна похмура казка, жанр "фентезі" присутній.

DеLight 
Відео Гуртом - фільмокрай
Відео Гуртом - фільмокрай


З нами з: 24.08.11
Востаннє: 17.11.16
Повідомлень: 664

2012-09-16 23:49  

Торент оновлено - замінено українську доріжку 2.0 на 5.1. Прохання перезавантажити!

kacher2 
Свій


З нами з: 02.10.10
Востаннє: 05.11.16
Повідомлень: 128

2012-09-22 12:11  
Гарна казка.
vic88888888 
Свій


З нами з: 11.11.10
Востаннє: 30.11.16
Повідомлень: 66

2012-09-22 17:24  
Як сказав герой Керрі в одному із своїх фільмів: "Бувало і краще...)"
Ваш часовий пояс: GMT + 2 Години

Нова тема   Відповісти