Завантажити та скачати торренти українською


Енвер Ізмайлов - Колекція (2 альбоми) (2008-2012) [FLAC] | Jazz

Нові коментарі

Нова тема   Відповісти
Останній раз роздавалося Myfordownloads (2016-10-09)
Автор Повідомлення
gosha.samovar 
VIP


З нами з: 08.09.10
Востаннє: 06.12.16
Повідомлень: 400

2012-09-05 22:16  
Енвер Ізмайлов - Колекція (2 альбоми) (2008-2012) [FLAC] | Jazz

Енвер Ізмайлов - Колекція (2 альбоми) (2008-2012) [FLAC] | Jazz


Стиль: Jazz
Країна, місто: Україна, село Фонтани Сімферопольського району (АРК)
Сайти: Офіційний сайт

Видавець: Enver Izmaylov
Пісні:
2008 - River of Time


    01. Фанк [0:03:35.44]
    02. Шторм [0:05:40.08]
    03. Посвящение Сеговии [0:03:10.67]
    04. Хорошее настроение [0:01:58.20]
    05. Дорога на Балканы [0:03:32.17]
    06. Байрам [0:04:33.12]
    07. Гимн Морю [0:04:14.47]
    08. Longo [0:03:06.32]
    09. Река времени [0:02:19.55]
    10. Миндаль [0:02:02.53]
    11. Карадаг [0:02:08.42]
    12. Печаль [0:03:43.23]
    13. Tarantella 2 [0:02:19.21]
    14. 1001 [0:04:01.09]
    15. Мангуп [0:02:31.37]
    16. Прилет на 7/16 [0:03:21.55]
    17. Былина [0:03:13.00]
EAC log
Exact Audio Copy V1.0 beta 3 from 29. August 2011

Отчёт EAC об извлечении, выполненном 4. сентября 2012, 16:38

Enver Izmaylov / River of Time

Дисковод: PHILIPS SPD2519T Adapter: 2 ID: 0

Режим чтения : Достоверность
Использование точного потока : Да
Отключение кэша аудио : Да
Использование указателей C2 : Нет

Коррекция смещения при чтении : 6
Способность читать области Lead-in и Lead-out : Нет
Заполнение пропущенных сэмплов тишиной : Да
Удаление блоков с тишиной в начале и конце : Нет
При вычислениях CRC использовались нулевые сэмплы : Да
Интерфейс : Встроенный Win32-интерфейс для Win NT/2000

Выходной формат : Пользовательский кодировщик
Выбранный битрейт : 1024 kBit/s
Качество : Высокий
Добавление ID3-тега : Нет
Утилита сжатия : D:\soft_2\EAC\Exact Audio Copy\Flac\flac.exe
Дополнительные параметры : -V -8 -T "Date=%year%" -T "Genre=%genre%" %source%

TOC извлечённого CD

Трек | Старт | Длительность | Начальный сектор | Конечный сектор
---------------------------------------------------------------------
1 | 0:00.00 | 3:35.44 | 0 | 16168
2 | 3:35.44 | 5:40.08 | 16169 | 41676
3 | 9:15.52 | 3:10.67 | 41677 | 55993
4 | 12:26.44 | 1:58.20 | 55994 | 64863
5 | 14:24.64 | 3:32.17 | 64864 | 80780
6 | 17:57.06 | 4:33.12 | 80781 | 101267
7 | 22:30.18 | 4:14.47 | 101268 | 120364
8 | 26:44.65 | 3:06.32 | 120365 | 134346
9 | 29:51.22 | 2:19.55 | 134347 | 144826
10 | 32:11.02 | 2:02.53 | 144827 | 154029
11 | 34:13.55 | 2:08.42 | 154030 | 163671
12 | 36:22.22 | 3:43.23 | 163672 | 180419
13 | 40:05.45 | 2:19.21 | 180420 | 190865
14 | 42:24.66 | 4:01.09 | 190866 | 208949
15 | 46:26.00 | 2:31.37 | 208950 | 220311
16 | 48:57.37 | 3:21.55 | 220312 | 235441
17 | 52:19.17 | 3:13.00 | 235442 | 249916

Характеристики диапазона извлечения и сообщения об ошибках

Выбранный диапазон

Имя файла E:\Музіка!\from EAC\Енвер Ізмайлов\2008 - River of Time\Enver Izmaylov - River of Time.wav

Пиковый уровень 98.8 %
Скорость извлечения 4.4 X
Качество диапазона 100.0 %
CRC теста E94881C5
CRC копии E94881C5
Копирование... OK

Ошибок не произошло

AccurateRip: сводка

Трек 1 отсутствует в базе данных
Трек 2 отсутствует в базе данных
Трек 3 отсутствует в базе данных
Трек 4 отсутствует в базе данных
Трек 5 отсутствует в базе данных
Трек 6 отсутствует в базе данных
Трек 7 отсутствует в базе данных
Трек 8 отсутствует в базе данных
Трек 9 отсутствует в базе данных
Трек 10 отсутствует в базе данных
Трек 11 отсутствует в базе данных
Трек 12 отсутствует в базе данных
Трек 13 отсутствует в базе данных
Трек 14 отсутствует в базе данных
Трек 15 отсутствует в базе данных
Трек 16 отсутствует в базе данных
Трек 17 отсутствует в базе данных

Ни одного трека нет в базе AccurateRip

Конец отчёта

==== Контрольная сумма отчёта F76CDFBAC85C30821E5F1882F64E7ECF21774851B3A7FA0BCEF3438B1A6150A7 ====
Спектр
Виконавці:
    Енвер Ізмайлов - електрогітари, вокал, уду (перкусія);
    ЛЕНІЄ - вокал (08);
    Рустем Барі - ударні, перкусія (06, 08, 13);
    Ахтем Булатов - звукорежисер

Тривалість: 00:55:32
Мова: відсутня
Аудіо-кодек: FLAC
Бітрейт: 886 кб/с
2012 - Meganom


    01. Mitridat [0:04:57.63]
    02. Bahchisaray [0:02:27.53]
    03. Azbar [0:01:41.06]
    04. Mig (I. Dryzhchaniy) [0:02:54.68]
    05. Hora Mare [0:03:37.27]
    06. Pechal [0:03:02.19]
    07. Richenitsa [0:03:23.13]
    08. Lazgi [0:02:10.39]
    09. Jasmin [0:06:42.00]
    10. Listok (I. Dryzhchaniy) [0:02:42.22]
    11. Meganom [0:06:24.00]
    12. Kalabalyk [0:06:12.24]
    13. Tribute M. Jackson [0:02:22.74]
    14. Yavluk [0:02:18.12]
    15. Bazar [0:04:23.12]
    16. Halva [0:02:51.65]
EAC log
Exact Audio Copy V1.0 beta 3 from 29. August 2011

Отчёт EAC об извлечении, выполненном 4. сентября 2012, 19:06

Enver Izmaylov / Meganom

Дисковод: PHILIPS SPD2519T Adapter: 2 ID: 0

Режим чтения : Достоверность
Использование точного потока : Да
Отключение кэша аудио : Да
Использование указателей C2 : Нет

Коррекция смещения при чтении : 6
Способность читать области Lead-in и Lead-out : Нет
Заполнение пропущенных сэмплов тишиной : Да
Удаление блоков с тишиной в начале и конце : Нет
При вычислениях CRC использовались нулевые сэмплы : Да
Интерфейс : Встроенный Win32-интерфейс для Win NT/2000

Выходной формат : Пользовательский кодировщик
Выбранный битрейт : 1024 kBit/s
Качество : Высокий
Добавление ID3-тега : Нет
Утилита сжатия : D:\soft_2\EAC\Exact Audio Copy\Flac\flac.exe
Дополнительные параметры : -V -8 -T "Date=%year%" -T "Genre=%genre%" %source%

TOC извлечённого CD

Трек | Старт | Длительность | Начальный сектор | Конечный сектор
---------------------------------------------------------------------
1 | 0:00.00 | 4:57.63 | 0 | 22337
2 | 4:57.63 | 2:27.53 | 22338 | 33415
3 | 7:25.41 | 1:41.06 | 33416 | 40996
4 | 9:06.47 | 2:54.68 | 40997 | 54114
5 | 12:01.40 | 3:37.27 | 54115 | 70416
6 | 15:38.67 | 3:02.19 | 70417 | 84085
7 | 18:41.11 | 3:23.13 | 84086 | 99323
8 | 22:04.24 | 2:10.39 | 99324 | 109112
9 | 24:14.63 | 6:42.00 | 109113 | 139262
10 | 30:56.63 | 2:42.22 | 139263 | 151434
11 | 33:39.10 | 6:24.00 | 151435 | 180234
12 | 40:03.10 | 6:12.24 | 180235 | 208158
13 | 46:15.34 | 2:22.74 | 208159 | 218882
14 | 48:38.33 | 2:18.12 | 218883 | 229244
15 | 50:56.45 | 4:23.12 | 229245 | 248981
16 | 55:19.57 | 2:51.65 | 248982 | 261871

Характеристики диапазона извлечения и сообщения об ошибках

Выбранный диапазон

Имя файла E:\Музіка!\from EAC\Енвер Ізмайлов\2012 - Meganom\Enver Izmaylov - Meganom.wav

Пиковый уровень 100.0 %
Скорость извлечения 2.3 X
Качество диапазона 99.9 %
CRC теста 1E7E9388
CRC копии 1E7E9388
Копирование... OK

Ошибок не произошло

AccurateRip: сводка

Трек 1 отсутствует в базе данных
Трек 2 отсутствует в базе данных
Трек 3 отсутствует в базе данных
Трек 4 отсутствует в базе данных
Трек 5 отсутствует в базе данных
Трек 6 отсутствует в базе данных
Трек 7 отсутствует в базе данных
Трек 8 отсутствует в базе данных
Трек 9 отсутствует в базе данных
Трек 10 отсутствует в базе данных
Трек 11 отсутствует в базе данных
Трек 12 отсутствует в базе данных
Трек 13 отсутствует в базе данных
Трек 14 отсутствует в базе данных
Трек 15 отсутствует в базе данных
Трек 16 отсутствует в базе данных

Ни одного трека нет в базе AccurateRip

Конец отчёта

==== Контрольная сумма отчёта F677B8E2CB2F2608F0DA56165D30CD656B8B85A47D83A62175EEC9D899B2DD9B ====
Спектр
Виконавці:
    Електрогітари, акустична гітара, уду, вокал - Енвер Ізмайлов
    Аранжування - Енвер Ізмайлов

Тривалість: 00:58:12
Мова: відсутня
Аудіо-кодек: FLAC
Бітрейт: 801 кб/с
Тривалість: 01:53:13
Мова: відсутня
Аудіо-кодек: FLAC
Бітрейт: 801-886 кб/с
Джерело: власні ріпи власних CD
Додаткова інформація
Просто дуже класна людина грає дуже класну музику, от і все.
За допомогу у придбанні сіді величезна подяка Костянтину.
Якщо Ви справді бажаєте підтримати українське - після прослуховування, якщо музика вам сподобалась, придбайте ліцензійний диск. Підтримаймо вітчизняних виконавців!


Срібний реліз (на рейтинг впливає 50% завантаженого)
 Трекер:    Зареєстрований   

Завантажити / скачати українську музику



відео для новачків



 Зареєстрований:   2012-09-05 22:16
 Розмір:   747 MB 
 Оцінка музики:   8.7/10 (Голосів: 7)
   
ssTAss 
Модератор музики


З нами з: 05.07.08
Востаннє: 06.12.16
Повідомлень: 10946

2012-09-05 22:43  
gosha.samovar написано:
Енвер Ізмайлов - Колекція, 2 альбоми (2008, 2012) [FLAC] | Jazz

Енвер Ізмайлов - Колекція (2 альбоми) (2008-2012) [FLAC] | Jazz
gosha.samovar написано:
Крим

це не місто
gosha.samovar написано:
электрогитары, вокал, уду (перкуссия)

перекласти українською (всі решта теж)
gosha.samovar написано:
E-guitars, acustic guitar, UDU, kay vocal

тут те саме

gosha.samovar 
VIP


З нами з: 08.09.10
Востаннє: 06.12.16
Повідомлень: 400

2012-09-05 22:45  
Скажіть, будь ласка, як пишеться українською ЛЕНИЕ?
І я не зміг знайти, у якому місті зараз проживає Енвер. Написано: село поблизу Симферополя.

ssTAss 
Модератор музики


З нами з: 05.07.08
Востаннє: 06.12.16
Повідомлень: 10946

2012-09-05 22:59  
Цитата:
Мешкає у селі Фонтани Сімферопольського району (АРК)


Додано через 3 хвилини 30 секунд:

gosha.samovar написано:
Скажіть, будь ласка, як пишеться українською ЛЕНИЕ?

http://www.umka.com.ua/ukr/singer/leniye-izmaylova.html

gosha.samovar 
VIP


З нами з: 08.09.10
Востаннє: 06.12.16
Повідомлень: 400

2012-09-05 23:11  
Дякую, все зробив.
ssTAss 
Модератор музики


З нами з: 05.07.08
Востаннє: 06.12.16
Повідомлень: 10946

2012-09-05 23:28  
gosha.samovar написано:
все зробив.

ну не зовсім
gosha.samovar написано:
електрогітары

gosha.samovar написано:
All аранжування

але вже сам поправлю

Ваш часовий пояс: GMT + 2 Години

Нова тема   Відповісти