Завантажити та скачати торренти українською


Жеребець / The Colt (2005) 1080p Ukr/Eng

Нові коментарі

Нова тема   Відповісти
Автор Повідомлення
urij546724 
Відео Гуртом - фільмокрай
Відео Гуртом - фільмокрай


З нами з: 16.03.10
Востаннє: 04.12.16
Повідомлень: 5222

2012-09-03 18:52  
Жеребець / The Colt (2005) 1080p Ukr/Eng

Альтернативні постери:

Слогани:
«A story of innocence born to the men of the Union First Cavalry.»


Жанр: екшн, драма, історичний, воєнний, вестерн
Країна: США



Кіностудія / кінокомпанія: Hallmark Entertainment, Province of British Columbia Production Services Tax Credit
Режисер: Єлена Ланська (Yelena Lanskaya)
Актори: Райан Мерріман (Ryan Merriman), Стів Бачіч (Steve Bacic), Вільям МакДональд (William MacDonald), Дарсі Белшер (Darcy Belsher), Скотт Хейндл (Scott Heindl), Пітер ЛаКроайкс (Peter LaCroix), Хейг Сазерленд (Haig Sutherland)...
Усі актори:
Райан Мерріман (Ryan Merriman), Стів Бачіч (Steve Bacic), Вільям МакДональд (William MacDonald), Дарсі Белшер (Darcy Belsher), Скотт Хейндл (Scott Heindl), Пітер ЛаКроайкс (Peter LaCroix), Хейг Сазерленд (Haig Sutherland), Колбі Йоханнсон (Colby Johannson), Меттью Каррі Холмс (Matthew Currie Holmes), Ентоні Гербрандта (Anthony Gerbrandt), Крістофер Редман (Christopher Redman), Річард Кехен (Richard Kahan), Філіп Грейнджер (Philip Granger), Меган Лейтч (Megan Leitch), Ейдан Драммонд (Aidan Drummond), Кассандра Соутелл (Cassandra Sawtell), Чад Кровчук (Chad Krowchuk), Брам Тейлор (Brahm Taylor), Крістофер Р. Самптон (Christopher R. Sumpton), Стівен Спендер (Stephen Spender), Стівен Холмс (Stephen Holmes), Конан Грехем (Conan Graham), Спрінг (Spring), Банджо (Banjo)
Сюжет:
У розпал боїв Громадянської війни у ​​улюбленої кобили Джима Реббіта, бійця північної армії, народжується чарівне лоша. Реббіту наказують пристрелити його, але він не підкоряється, хоча з лошам у нього чимало клопоту. В цей жорстокий час лоша служить Реббіту розрадою і символом надії, яка веде бійців Першої Кавалерії на їх нелегкому шляху.
Назва фільму у інших країнах
O Potro
Португалія


Teleftaia elpida
Греція


Жеребенок / Рожденный свободным
Росія
Media info
General
Unique ID : 178694608654310163085157749168308808347 (0x866F546BDBC3D750ACC0F4995EBCEA9B)
Complete name : D:\The Colt (2005) [ukr_TV+ for ICTV_AC3_5.1] 1080p [Hurtom] by urij546724.mkv
Format : Matroska
Format version : Version 2
File size : 6.82 GiB
Duration : 1h 23mn
Overall bit rate : 11.6 Mbps
Movie name : The Colt (2005) [ukr_TV+ for ICTV_AC3_5.1] 1080p [Hurtom] by urij546724
Encoded date : UTC 2012-09-05 19:03:36
Writing application : mkvmerge v2.9.7 ('Tenderness') built on Jul 1 2009 18:43:35
Writing library : libebml v0.7.7 + libmatroska v0.8.1

Video
ID : 1
Format : AVC
Format/Info : Advanced Video Codec
Format profile : [email protected]
Format settings, CABAC : Yes
Format settings, ReFrames : 4 frames
Codec ID : V_MPEG4/ISO/AVC
Duration : 1h 23mn
Bit rate : 10.8 Mbps
Width : 1 920 pixels
Height : 1 080 pixels
Display aspect ratio : 16:9
Frame rate : 23.976 fps
Color space : YUV
Chroma subsampling : 4:2:0
Bit depth : 8 bits
Scan type : Progressive
Bits/(Pixel*Frame) : 0.216
Stream size : 6.16 GiB (90%)
Title : The Colt (2005) [ukr_TV+ for ICTV_AC3_5.1] 1080p [Hurtom] by urij546724
Writing library : core 98 r1649 c54c47d
Encoding settings : cabac=1 / ref=4 / deblock=1:0:0 / analyse=0x3:0x133 / me=umh / subme=8 / psy=1 / psy_rd=1.00:0.00 / mixed_ref=1 / me_range=16 / chroma_me=1 / trellis=1 / 8x8dct=1 / cqm=0 / deadzone=21,11 / fast_pskip=0 / chroma_qp_offset=-2 / threads=12 / sliced_threads=0 / nr=0 / decimate=1 / interlaced=0 / constrained_intra=0 / bframes=3 / b_pyramid=2 / b_adapt=1 / b_bias=0 / direct=1 / weightb=1 / weightp=2 / keyint=250 / keyint_min=25 / scenecut=40 / intra_refresh=0 / rc_lookahead=40 / rc=2pass / mbtree=1 / bitrate=10757 / ratetol=1.0 / qcomp=0.60 / qpmin=10 / qpmax=51 / qpstep=4 / cplxblur=20.0 / qblur=0.5 / ip_ratio=1.40 / aq=1:1.00
Language : English
Default : Yes
Forced : No

Audio #1
ID : 2
Format : AC-3
Format/Info : Audio Coding 3
Mode extension : CM (complete main)
Format settings, Endianness : Big
Codec ID : A_AC3
Duration : 1h 23mn
Bit rate mode : Constant
Bit rate : 448 Kbps
Channel(s) : 6 channels
Channel positions : Front: L C R, Side: L R, LFE
Sampling rate : 48.0 KHz
Bit depth : 16 bits
Compression mode : Lossy
Stream size : 269 MiB (4%)
Title : Українська доріжка
Language : Ukrainian
Default : Yes
Forced : No

Audio #2
ID : 3
Format : AC-3
Format/Info : Audio Coding 3
Mode extension : CM (complete main)
Format settings, Endianness : Big
Codec ID : A_AC3
Duration : 1h 23mn
Bit rate mode : Constant
Bit rate : 448 Kbps
Channel(s) : 6 channels
Channel positions : Front: L C R, Side: L R, LFE
Sampling rate : 48.0 KHz
Bit depth : 16 bits
Compression mode : Lossy
Stream size : 269 MiB (4%)
Title : Англійська доріжка
Language : English
Default : No
Forced : No

Text
ID : 4
Format : UTF-8
Codec ID : S_TEXT/UTF8
Codec ID/Info : UTF-8 Plain Text
Title : Українські субтитри
Language : Ukrainian
Default : Yes
Forced : No

Menu
00:00:00.000 : en:00:00:00.000
00:03:14.694 : en:00:03:14.694
00:09:26.566 : en:00:09:26.566
00:13:35.314 : en:00:13:35.314
00:21:04.263 : en:00:21:04.263
00:26:36.094 : en:00:26:36.094
00:31:33.892 : en:00:31:33.892
00:37:01.219 : en:00:37:01.219
00:41:07.465 : en:00:41:07.465
00:50:10.007 : en:00:50:10.007
00:55:21.318 : en:00:55:21.318
01:00:43.640 : en:01:00:43.640
01:07:22.038 : en:01:07:22.038
01:11:53.809 : en:01:11:53.809
01:19:09.244 : en:01:19:09.244
Тривалість: 01:23:52
Якість: 1080p
Відео:
кодек:
розмір кадру: 1920 х 1080
бітрейт: ~ 10.8 мб/с
частота кадрів: 23.976 к/с (fps)

Аудіо #1:
мова: українська
переклад: багатоголосий закадровий
кодек: 5.1
бітрейт: 448 кб/с
запис з каналу: студія ТВ+ на замовлення
примітка: озвучка відсутня на відрізку 58:25-59:28

Аудіо #2:
мова: англійська
переклад: оригінал
кодек: 5.1
бітрейт: 448 кб/с

Субтитри (на момент без перекладу):
мова: українська
тип: програмні (м'які)
формат: *.srt
переклад: з російської urij546724

Скріншоти:





Трейлер:
Семпл
Джерело 1_________Джерело 2_________Джерело 3_________Джерело 4_________Джерело 5_________Джерело 6_________Джерело 7
У випадку, якщо з усіх джерел семпл видалять, прохання повідомити мені у ПРИВАТ


Подяка:

1. Пану Merdiff за запис звуку з ТБ.


Реліз створено: &

Особиста оцінка: Ще не дивився.

Реліз зберігати не буду, видалю щойно буде потрібне вільне місце.


 Трекер:    Зареєстрований   

Завантажити / скачати фільм українською



відео для новачків



 Зареєстрований:   2012-09-05 22:03
 Розмір:   6.82 GB 
 Оцінка фільму:   2/10 (Голосів: 4)
 Прохання залишати коментарі і не тікати з роздачі.
   
Інші релізи
   Жеребець / The Colt (2005) Ukr/Eng urij546724  1 / 1   1.45 GB   2012-09-06 11:05 
ratbol 
Модератор HD


З нами з: 03.02.09
Востаннє: 01.12.16
Повідомлень: 1088

2012-09-05 22:46  
Люблю коників. Благородні тварини.
waldi-hurtom 
VIP


З нами з: 07.10.12
Востаннє: 03.12.16
Повідомлень: 611

2012-11-24 22:42  
Взагалі, назву слід перекласти "Лоша". Фільм мені здався дуже посереднім. Було б дивним, якби жінка режисер зняла щось видатне. Та ще про війну - звісно, жінки великі експерти в усьому, особливо у війні! Мало того, фільм знято за мотивами оповідання Шолохова (якби знав, не скачував би). Ця б дамочка ще зняла фільм про Нахальонка, як жирна муха повзає на оці порубаного батька. Мо, ще зніме. Крім коників у цьому фільми дивитись нема чого. 5 балів коникам.
Ваш часовий пояс: GMT + 2 Години

Нова тема   Відповісти