Завантажити та скачати торренти українською


Mozergush - Дискографія (2 альбоми) (2007-2010) [FLAC] | Stoner Doom / Drone

Нові коментарі

Нова тема   Відповісти
Останній раз роздавалося dykyikit (2014-07-04)
Автор Повідомлення
Lev 
VIP


З нами з: 14.10.09
Востаннє: 05.12.16
Повідомлень: 1819

2012-09-03 05:53  
Mozergush - Дискографія (2 альбоми) (2007-2010) [FLAC] | Stoner Doom / Drone

Mozergush - Дискографія (2 альбоми) (2007-2010) [FLAC] | Stoner Doom / Drone


Стиль: Stoner Doom / Drone / Experimental
Країна, місто: Україна, Донецьк-Київ
Сайти:

Видавець: Oldturtles Tapes Records, Iron Hamster
Виконавці:
див. поальбомно
Пісні:
    Mozergush - Fairytale Alcotrips (2007, 2010 Reissue)




    Виконавці :

    ILYA - гітара, вокал, u75
    ANTOSICK - барабани, вокал
    IVAN - бас-гітара
    VALD - вокал
    DIMAS - вокал

    Трекліст :

    1. Hangover Flood (07:25)
    2. Shoplifters (04:00)
    3. Rumdrunken Whalerider / Magic Sea (08:15)
    4. Mazatec (02:27)
    5. Too Drunk To Die (04:52)
    6. Stupid Bitch & Freaked Witch (06:25)
    7. Voidtravelling Flues (05:02)
    8. Death Chess (part 1 & part 2) (09:19)
    9. Pigs On The Run (Bonus Track) (6:04)

    Тривалість звучання : 00:53:50
    Тип ріпу: image+.cue
    log EAC
    Exact Audio Copy V0.99 prebeta 4 from 23. January 2008

    EAC extraction logfile from 30. August 2010, 9:37

    Mozergush / Fairytale Alcotrips [Demo, Re-Released]

    Used drive : SONY DVD RW AW-G170A Adapter: 0 ID: 0

    Read mode : Secure
    Utilize accurate stream : Yes
    Defeat audio cache : Yes
    Make use of C2 pointers : No

    Read offset correction : 48
    Overread into Lead-In and Lead-Out : No
    Fill up missing offset samples with silence : Yes
    Delete leading and trailing silent blocks : No
    Null samples used in CRC calculations : Yes
    Used interface : Installed external ASPI interface

    Used output format : Internal WAV Routines
    Sample format : 44.100 Hz; 16 Bit; Stereo

    TOC of the extracted CD

    Track | Start | Length | Start sector | End sector
    ---------------------------------------------------------
    1 | 0:00.00 | 7:25.32 | 0 | 33406
    2 | 7:25.32 | 4:00.32 | 33407 | 51438
    3 | 11:25.64 | 8:15.04 | 51439 | 88567
    4 | 19:40.68 | 2:27.31 | 88568 | 99623
    5 | 22:08.24 | 4:52.05 | 99624 | 121528
    6 | 27:00.29 | 6:24.65 | 121529 | 150393
    7 | 33:25.19 | 5:01.41 | 150394 | 173009
    8 | 38:26.60 | 9:18.56 | 173010 | 214915
    9 | 47:45.41 | 6:04.34 | 214916 | 242249

    Range status and errors

    Selected range

    Filename D:\Music\Mozergush - Fairytale Alcotrips [Demo, Re-Released].wav

    Peak level 98.8 %
    Range quality 99.9 %
    Test CRC 9B3AEF13
    Copy CRC 9B3AEF13
    Copy OK

    No errors occurred

    AccurateRip summary

    Track 1 not present in database
    Track 2 not present in database
    Track 3 not present in database
    Track 4 not present in database
    Track 5 not present in database
    Track 6 not present in database
    Track 7 not present in database
    Track 8 not present in database
    Track 9 not present in database

    None of the tracks are present in the AccurateRip database

    End of status report
    Mozergush (2008)




    Виконавці :

    ILYA - гітара, вокал, синтезатори
    IVAN - бас-гітара
    ANTOS - барабани
    VALD - "гостьовий" вокал

    Трекліст :

    1. Voznakurenets (08:46)
    2. Red Bottle With Pils (15:07)
    3. Here There Be Tygers (04:15)
    4. Longliver (Man Who Will Never Die) (05:04)
    5. Volcanic Pigstars (06:50)
    6. Green Bottle With Pills (9:12)
    7. Syringe In The Sky (02:30)
    8. Suicide Blues Of Blue Suicidals (Hidden Track) (11:21)

    Тривалість звучання : 01:03:06
    Тип ріпу: image+.cue
    log EAC
    Exact Audio Copy V0.99 prebeta 5 from 4. May 2009

    EAC extraction logfile from 17. April 2011, 9:57

    Mozergush / Mozergush

    Used drive : ASUS DRW-1814BL Adapter: 3 ID: 0

    Read mode : Secure
    Utilize accurate stream : Yes
    Defeat audio cache : Yes
    Make use of C2 pointers : No

    Read offset correction : 6
    Overread into Lead-In and Lead-Out : No
    Fill up missing offset samples with silence : Yes
    Delete leading and trailing silent blocks : No
    Null samples used in CRC calculations : Yes
    Used interface : Installed external ASPI interface

    Used output format : Internal WAV Routines
    Sample format : 44.100 Hz; 16 Bit; Stereo

    TOC of the extracted CD

    Track | Start | Length | Start sector | End sector
    ---------------------------------------------------------
    1 | 0:00.00 | 8:46.34 | 0 | 39483
    2 | 8:46.34 | 15:07.22 | 39484 | 107530
    3 | 23:53.56 | 4:15.00 | 107531 | 126655
    4 | 28:08.56 | 5:04.23 | 126656 | 149478
    5 | 33:13.04 | 6:50.32 | 149479 | 180260
    6 | 40:03.36 | 9:11.72 | 180261 | 221657
    7 | 49:15.33 | 2:29.59 | 221658 | 232891
    8 | 51:45.17 | 11:21.15 | 232892 | 283981

    Range status and errors

    Selected range

    Filename C:\Mozergush - Mozergush.wav

    Peak level 100.0 %
    Range quality 100.0 %
    Test CRC F0A76A94
    Copy CRC F0A76A94
    Copy OK

    No errors occurred

    AccurateRip summary

    Track 1 accurately ripped (confidence 1) [1D838E51]
    Track 2 accurately ripped (confidence 1) [DD42BEC6]
    Track 3 accurately ripped (confidence 1) [170EF5BA]
    Track 4 accurately ripped (confidence 1) [EF245028]
    Track 5 accurately ripped (confidence 1) [55530F89]
    Track 6 accurately ripped (confidence 1) [7A1C665B]
    Track 7 accurately ripped (confidence 1) [4F40FB97]
    Track 8 accurately ripped (confidence 1) [F00270D9]

    All tracks accurately ripped

    End of status report

Тривалість: 01:56:56
Мова: англійська
Аудіо-кодек: FLAC
Бітрейт: 845, 836 кб/с
Джерело: CD-rip by Necromandus та Jobforaworm

Додаткова інформація:
За словами лідера Mozergush Іллі (відомого також деяким меломанам за своїми проектами Deathorientation та Schperrung), групу засновано десь на початку 2007 року, коли він запропонував своїм друзям з брутал-детової банди Datura пограти разом doom.

Музика Mozergush "про тягуче, важке та неповоротке. Це може бути все що завгодно - від моряка з простреленою ногою до якоїсь обдовбаної курви або цілого міста, зануреного в депресію."

Як можна легко здогадатись, назва групи походить від симбіозу слів «mother» та «gush».

Найближчий виступ Mozergush - 8 вересня в Києві на Robustfest, рекомендую не провтикати - вони рідко виступають.
афіша


Якщо Ви справді бажаєте підтримати українське - після прослуховування, якщо музика вам сподобалась, придбайте ліцензійний диск. Підтримаймо вітчизняних виконавців!


Золотий реліз (завантажене не впливає на рейтинг)
 Трекер:    Зареєстрований   

Завантажити / скачати українську музику



відео для новачків



 Зареєстрований:   2012-09-03 05:53
 Розмір:   807 MB 
 Оцінка музики:   7/10 (Голосів: 3)
   
Lev 
VIP


З нами з: 14.10.09
Востаннє: 05.12.16
Повідомлень: 1819

2012-09-04 16:20  
Хто хоче скачати, активніше з'являйтесь - роздаю НЕ цілодобово.
Ваш часовий пояс: GMT + 2 Години

Нова тема   Відповісти