Завантажити та скачати торренти українською


Лузери / The Losers (2010) 720p Ukr/Eng | Sub Ukr/Eng

Нові коментарі

Нова тема   Відповісти
Автор Повідомлення
4erkov 
Відео Гуртом - запис з ТБ
Відео Гуртом - запис з ТБ


З нами з: 09.10.10
Востаннє: 06.12.16
Повідомлень: 1846

2012-09-02 16:18  
Лузери / The Losers (2010) 720p Ukr/Eng | Sub Ukr/Eng

Лузери / The Losers (2010) 720p Ukr/Eng | Sub Ukr/Eng

Жанр: бойовик, трилер, комедія, кримінал
Країна: США

Кіностудія / кінокомпанія: Warner Bros. Pictures, Dark Castle Entertainment
Режисер: Сільвен Уайт
Актори: Джеффрі Дін Морган, Зої Салдана, Кріс Еванс, Ідріс Ельба, Коламбус Шорт, Оскар Хаенада, Джейсон Патрік, Холт МакКеллані, Пітер Макдіссі, Пітер Френсіс Джеймс
Сюжет:
«Лузери» - божевільний екшн про зраду і помсту, що розповідає про членів елітного загону спеціального призначення, яких відправили в джунглі Болівії. Їм поставили завдання «знайти і знищити», але на місці з'ясовується, що команду - Клея, Дженсена, Рока, Пуча і Кугар - підставили, і вони потрапили під перехресний вогонь двох протиборчих таборів. Смертельне протистояння було спровоковано зсередини могутнім ворогом, про якого відомо лише одне: його ім'я - Макс.

Тривалість: 01:37:00
Якість: [ріп від CtrlHD]
Відео:
кодек:
розмір кадру: 1280 х 534
бітрейт: 6563 кб/с

Аудіо:
мова: українська
переклад: багатоголосий закадровий
кодек: 2.0 (стерео)
бітрейт: 192 кб/с

Аудіо # 2:
мова: англійська
переклад: оригінал
кодек: 5.1
бітрейт: 1510 кб/с

Субтитри:
мова: укаїнська | R5
тип: програмні (м'які)
формат: *.srt

Субтитри # 2:
мова: англійська
тип: програмні (м'які)
формат: *.srt
Переклад виконано і озвучено:
Студією "ТакТребаПродакшн" на замовлення
Скріншоти






Media-Info
General
Unique ID : 210292742240167064222773523385309526362 (0x9E34E8B0146D597584E3CC49868CF95A)
Complete name : D:\Релізи\Movies\The Losers (2010) [ukr,eng] 720p [Hurtom].mkv
Format : Matroska
Format version : Version 2
File size : 5.60 GiB
Duration : 1h 37mn
Overall bit rate : 8 262 Kbps
Movie name : Hurtom & CtrlHD
Encoded date : UTC 2012-09-02 09:48:09
Writing application : mkvmerge v5.6.0 ('Kenya Kane') built on May 27 2012 16:44:04
Writing library : libebml v1.2.3 + libmatroska v1.3.0

Video
ID : 1
Format : AVC
Format/Info : Advanced Video Codec
Format profile : [email protected]
Format settings, CABAC : Yes
Format settings, ReFrames : 11 frames
Codec ID : V_MPEG4/ISO/AVC
Duration : 1h 37mn
Bit rate : 6 563 Kbps
Width : 1 280 pixels
Height : 534 pixels
Display aspect ratio : 2.40:1
Frame rate : 23.976 fps
Color space : YUV
Chroma subsampling : 4:2:0
Bit depth : 8 bits
Scan type : Progressive
Bits/(Pixel*Frame) : 0.400
Stream size : 4.33 GiB (77%)
Title : 720p
Writing library : core 102 r1666 d058f37
Encoding settings : cabac=1 / ref=11 / deblock=1:-3:-3 / analyse=0x3:0x133 / me=umh / subme=10 / psy=1 / psy_rd=0.80:0.00 / mixed_ref=1 / me_range=32 / chroma_me=1 / trellis=2 / 8x8dct=1 / cqm=0 / deadzone=21,11 / fast_pskip=1 / chroma_qp_offset=-2 / threads=6 / sliced_threads=0 / nr=0 / decimate=1 / interlaced=0 / constrained_intra=0 / bframes=6 / b_pyramid=2 / b_adapt=2 / b_bias=0 / direct=3 / weightb=1 / open_gop=0 / weightp=2 / keyint=250 / keyint_min=25 / scenecut=40 / intra_refresh=0 / rc_lookahead=40 / rc=2pass / mbtree=1 / bitrate=6563 / ratetol=1.0 / qcomp=0.60 / qpmin=10 / qpmax=51 / qpstep=4 / cplxblur=20.0 / qblur=0.5 / ip_ratio=1.40 / aq=1:1.20
Language : English
Default : Yes
Forced : No

Audio #1
ID : 2
Format : AC-3
Format/Info : Audio Coding 3
Mode extension : CM (complete main)
Format settings, Endianness : Big
Codec ID : A_AC3
Duration : 1h 37mn
Bit rate mode : Constant
Bit rate : 192 Kbps
Channel(s) : 2 channels
Channel positions : Front: L R
Sampling rate : 48.0 KHz
Bit depth : 16 bits
Compression mode : Lossy
Stream size : 133 MiB (2%)
Title : ICTV (ТТП)
Language : Ukrainian
Default : Yes
Forced : No

Audio #2
ID : 3
Format :
Format/Info : Digital Theater Systems
Codec ID : A_DTS
Duration : 1h 37mn
Bit rate mode : Constant
Bit rate : 1 510 Kbps
Channel(s) : 6 channels
Channel positions : Front: L C R, Side: L R, LFE
Sampling rate : 48.0 KHz
Bit depth : 24 bits
Compression mode : Lossy
Stream size : 1.02 GiB (18%)
Title : Original
Language : English
Default : No
Forced : No

Text #1
ID : 4
Format : UTF-8
Codec ID : S_TEXT/UTF8
Codec ID/Info : UTF-8 Plain Text
Language : Ukrainian
Default : No
Forced : No

Text #2
ID : 5
Format : UTF-8
Codec ID : S_TEXT/UTF8
Codec ID/Info : UTF-8 Plain Text
Language : English
Default : No
Forced : No

Menu
00:00:00.000 : en:00:00:00.000
00:06:17.085 : en:00:06:17.085
00:10:47.355 : en:00:10:47.355
00:14:59.023 : en:00:14:59.023
00:20:54.878 : en:00:20:54.878
00:25:52.467 : en:00:25:52.467
00:31:21.546 : en:00:31:21.546
00:40:18.249 : en:00:40:18.249
00:46:43.133 : en:00:46:43.133
00:54:42.988 : en:00:54:42.988
00:59:43.204 : en:00:59:43.204
01:05:21.125 : en:01:05:21.125
01:12:58.582 : en:01:12:58.582
01:18:33.959 : en:01:18:33.959
01:26:28.725 : en:01:26:28.725
01:29:41.876 : en:01:29:41.876

Джерело: Запис та зведення - 4erkov. Також висловлюю подяку п. hellforces за постер.
Особиста оцінка: 8 - мені сподобалося


 Трекер:    Зареєстрований   

Завантажити / скачати фільм українською



відео для новачків



 Зареєстрований:   2012-09-02 16:18
 Розмір:   5.6 GB 
 Оцінка фільму:   9.1/10 (Голосів: 12)
   
Інші релізи
   Лузери / The Losers (2010) Ukr/Eng | Sub Ukr/Eng 4erkov  10 / 0   1.59 GB   2012-09-02 15:56 
Ваш часовий пояс: GMT + 2 Години

Нова тема   Відповісти