Завантажити та скачати торренти українською


Субмарина / Submarine (2010) 720p Ukr/Eng | Sub Multi

Нові коментарі

Нова тема   Відповісти
Автор Повідомлення
DеLight 
Відео Гуртом - фільмокрай
Відео Гуртом - фільмокрай


З нами з: 24.08.11
Востаннє: 17.11.16
Повідомлень: 664

2012-09-01 17:08  
Субмарина / Submarine (2010) 720p Ukr/Eng | Sub Multi

Субмарина / Submarine (2010) 720p Ukr/Eng | Sub Multi



Альтернативні постер і обкладинка Blu-ray






Жанр: комедія, драма, романтичний
Країна: Великобританія, США



рейтинг MPAA: - дітям до 17 років обов'язкова присутність батьків або дорослого опікуна


Кіностудія / кінокомпанія: Film Agency for Wales, Film4, Red Hour Films, Warp (Submarine), Warp Films / Weinstein Company
Режисер: Річард Айоаде / Richard Ayoade
Актори: Крейг Робертс / Craig Roberts, Ясмін Пейдж / Yasmin Paige, Ноа Тейлор / Noah Taylor, Педді Консідайн / Paddy Considine, Саллі Хоукінс / Sally Hawkins, Даррен Еванс / Darren Evans, Озіан Кай Дулаіс / Osian Cai Dulais, Лілі Макканн / Lily McCann, Отіс Ллойд / Otis Lloyd, Елінор Кроулі / Elinor Crawley, Стеффан Родрі / Steffan Rhodri, Джемма Чан / Gemma Chan, Мелані Уолтерс / Melanie Walters, Сіон Тудор Оуен / Sion Tudor Owen, Едріан О'Салліван / Adrienne O'Sullivan

Сюжет:
Познайомтесь з Олівером Тейтом - не по роках розвиненим тінейджером, невиправним романтиком і сентиментальним мрійником, якого ніхто не сприймає всерйоз. Головні цілі Олівера: зберегти шлюб своїх батьків, що розвалюється і позбутися невинності до настання шістнадцяти років в обіймах дівчини своєї мрії.





Тривалість: 01:36:54
Якість: 720p [CHD]

Відео:
кодек:
розмір кадру: 1280 x 690
бітрейт: 6 633 кб/с

Аудіо #1:
мова: українська
переклад: двоголосий закадровий
кодек: 5.1
бітрейт: 448 кб/с

Фільм озвучено студією «KWA Sound Production» на замовлення Артхаус-Трафік
Ролі озвучували: Максим Кондратюк та Наталя Романько


Аудіо #2:
мова: англійська
переклад: оригінал
кодек: 5.1
бітрейт: 755 кб/с

Субтитри #1: форсовані
мова: українська
тип: програмні (м'які)
формат: *.srt

Субтитри #2-12: повні
мова: болгарська, хорватська, данська, англійська, фінська, угорська, італійська, польська, португальська, іспанська, шведська
тип: програмні (м'які)
формат: *.srt



->переглянути<-

Код:
General
Unique ID                      : 190716769150536760213709909083175497375 (0x8F7AB6B2725B5E6C95DF912F3EB3AE9F)
Complete name                  : D:\Torrents\Submarine (2010) 720p [Ukr, Eng] [Hurtom].mkv
Format                         : Matroska
Format version                 : Version 2
File size                      : 5.30 GiB
Duration                       : 1h 36mn
Overall bit rate               : 7 838 Kbps
Movie name                     : Submarine (2010) 720p [Ukr, Eng] [Hurtom] by Delight
Encoded date                   : UTC 2012-09-01 12:55:19
Writing application            : mkvmerge v5.7.0 ('The Whirlwind') built on Jul  8 2012 20:08:51
Writing library                : libebml v1.2.3 + libmatroska v1.3.0

Video
ID                             : 1
Format                         : AVC
Format/Info                    : Advanced Video Codec
Format profile                 : [email protected]
Format settings, CABAC         : Yes
Format settings, ReFrames      : 9 frames
Codec ID                       : V_MPEG4/ISO/AVC
Duration                       : 1h 36mn
Bit rate                       : 6 633 Kbps
Width                          : 1 280 pixels
Height                         : 690 pixels
Display aspect ratio           : 1.85:1
Frame rate mode                : Constant
Frame rate                     : 23.976 fps
Color space                    : YUV
Chroma subsampling             : 4:2:0
Bit depth                      : 8 bits
Scan type                      : Progressive
Bits/(Pixel*Frame)             : 0.313
Stream size                    : 4.39 GiB (83%)
Title                          : Submarine (2010) 720p [CHD]
Writing library                : core 115 r2008+578 3864dbe
Encoding settings              : cabac=1 / ref=9 / deblock=1:-3:-3 / analyse=0x3:0x113 / me=umh / subme=10 / psy=1 / fade_compensate=0.00 / psy_rd=1.05:0.10 / mixed_ref=1 / me_range=32 / chroma_me=1 / trellis=2 / 8x8dct=1 / cqm=2 / deadzone=21,11 / fast_pskip=0 / chroma_qp_offset=-2 / threads=12 / sliced_threads=0 / nr=0 / decimate=1 / interlaced=0 / bluray_compat=0 / constrained_intra=0 / fgo=0 / bframes=6 / b_pyramid=2 / b_adapt=2 / b_bias=0 / direct=3 / weightb=1 / open_gop=0 / weightp=2 / keyint=250 / keyint_min=23 / scenecut=40 / intra_refresh=0 / rc_lookahead=40 / rc=2pass / mbtree=1 / bitrate=6633 / ratetol=1.0 / qcomp=0.60 / qpmin=1 / qpmax=63 / qpstep=4 / cplxblur=20.0 / qblur=0.5 / vbv_maxrate=40000 / vbv_bufsize=30000 / nal_hrd=none / ip_ratio=1.40 / aq=2:1.00
Language                       : English
Default                        : No
Forced                         : No

Audio #1
ID                             : 2
Format                         : AC-3
Format/Info                    : Audio Coding 3
Mode extension                 : CM (complete main)
Format settings, Endianness    : Big
Codec ID                       : A_AC3
Duration                       : 1h 36mn
Bit rate mode                  : Constant
Bit rate                       : 448 Kbps
Channel(s)                     : 6 channels
Channel positions              : Front: L C R, Side: L R, LFE
Sampling rate                  : 48.0 KHz
Bit depth                      : 16 bits
Compression mode               : Lossy
Stream size                    : 310 MiB (6%)
Title                          : 5.1; 448 kbps; двоголосий закадровий {KWA Sound Production}
Language                       : Ukrainian
Default                        : Yes
Forced                         : No

Audio #2
ID                             : 3
Format                         :
Format/Info                    : Digital Theater Systems
Codec ID                       : A_DTS
Duration                       : 1h 36mn
Bit rate mode                  : Constant
Bit rate                       : 755 Kbps
Channel(s)                     : 6 channels
Channel positions              : Front: L C R, Side: L R, LFE
Sampling rate                  : 48.0 KHz
Bit depth                      : 24 bits
Compression mode               : Lossy
Stream size                    : 523 MiB (10%)
Title                          : 5.1; 755 kbps; original
Language                       : English
Default                        : No
Forced                         : No

Text #1
ID                             : 4
Format                         : UTF-8
Codec ID                       : S_TEXT/UTF8
Codec ID/Info                  : UTF-8 Plain Text
Title                          : forced
Language                       : Ukrainian
Default                        : Yes
Forced                         : Yes

Text #2
ID                             : 5
Format                         : UTF-8
Codec ID                       : S_TEXT/UTF8
Codec ID/Info                  : UTF-8 Plain Text
Title                          : full
Language                       : Bulgarian
Default                        : No
Forced                         : No

Text #3
ID                             : 6
Format                         : UTF-8
Codec ID                       : S_TEXT/UTF8
Codec ID/Info                  : UTF-8 Plain Text
Title                          : full
Language                       : Croatian
Default                        : No
Forced                         : No

Text #4
ID                             : 7
Format                         : UTF-8
Codec ID                       : S_TEXT/UTF8
Codec ID/Info                  : UTF-8 Plain Text
Title                          : full
Language                       : Danish
Default                        : No
Forced                         : No

Text #5
ID                             : 8
Format                         : UTF-8
Codec ID                       : S_TEXT/UTF8
Codec ID/Info                  : UTF-8 Plain Text
Title                          : full
Language                       : English
Default                        : No
Forced                         : No

Text #6
ID                             : 9
Format                         : UTF-8
Codec ID                       : S_TEXT/UTF8
Codec ID/Info                  : UTF-8 Plain Text
Title                          : full
Language                       : Finnish
Default                        : No
Forced                         : No

Text #7
ID                             : 10
Format                         : UTF-8
Codec ID                       : S_TEXT/UTF8
Codec ID/Info                  : UTF-8 Plain Text
Title                          : full
Language                       : Hungarian
Default                        : No
Forced                         : No

Text #8
ID                             : 11
Format                         : UTF-8
Codec ID                       : S_TEXT/UTF8
Codec ID/Info                  : UTF-8 Plain Text
Title                          : full
Language                       : Italian
Default                        : No
Forced                         : No

Text #9
ID                             : 12
Format                         : UTF-8
Codec ID                       : S_TEXT/UTF8
Codec ID/Info                  : UTF-8 Plain Text
Title                          : full
Language                       : Polish
Default                        : No
Forced                         : No

Text #10
ID                             : 13
Format                         : UTF-8
Codec ID                       : S_TEXT/UTF8
Codec ID/Info                  : UTF-8 Plain Text
Title                          : full
Language                       : Portuguese
Default                        : No
Forced                         : No

Text #11
ID                             : 14
Format                         : UTF-8
Codec ID                       : S_TEXT/UTF8
Codec ID/Info                  : UTF-8 Plain Text
Title                          : full
Language                       : Spanish
Default                        : No
Forced                         : No

Text #12
ID                             : 15
Format                         : UTF-8
Codec ID                       : S_TEXT/UTF8
Codec ID/Info                  : UTF-8 Plain Text
Title                          : full
Language                       : Swedish
Default                        : No
Forced                         : No




->переглянути<-





















Джерело: &
Дякую MutuLI за надану українську доріжку
Особиста оцінка: 9 - хороше кіно про юнацькі роки із чудовими саундтреками




 Трекер:    Зареєстрований   

Завантажити / скачати фільм українською



відео для новачків



 Зареєстрований:   2012-09-01 17:08
 Розмір:   5.3 GB 
 Оцінка фільму:   8.6/10 (Голосів: 16)
   
Інші релізи
   Субмарина / Submarine (2010) Ukr/Eng | Sub Eng MutuLI  3 / 2   1.76 GB   2012-08-23 08:52 
waldi-hurtom 
VIP


З нами з: 07.10.12
Востаннє: 02.12.16
Повідомлень: 611

2013-04-27 22:22  
Гарний фільм, на 9 балів.
10alexs 
VIP


З нами з: 26.02.09
Востаннє: 03.12.16
Повідомлень: 296

2014-01-07 03:07  
на 10
JF-X 
Новенький


З нами з: 28.08.10
Востаннє: 02.12.16
Повідомлень: 15

2014-07-03 12:37  
Встаньте на роздачу.
DеLight 
Відео Гуртом - фільмокрай
Відео Гуртом - фільмокрай


З нами з: 24.08.11
Востаннє: 17.11.16
Повідомлень: 664

2014-07-03 14:47  
JF-X
Ваш рейтинг опустився нижче 0.15 http://toloka.to/t35477

Ваш часовий пояс: GMT + 2 Години

Нова тема   Відповісти