Завантажити та скачати торренти українською


Бурдон - Дискографія (4 альбоми) (2006-2013) [FLAC] | Folk

Нові коментарі

Нова тема   Відповісти
Автор Повідомлення
gosha.samovar 
VIP


З нами з: 08.09.10
Востаннє: 05.12.16
Повідомлень: 400

2012-08-31 18:42  
Бурдон - Дискографія (4 альбоми) (2006-2013) [FLAC] | Folk



Стиль: Folk
Країна, місто: Україна, Львів
Сайти: Офіційний сайт

Пісні:
2006 - Re-Карпатія

01. Gergelytanc/Sirba (Csango/Transylvanian)
02. Kadynja (Moldavian)
03. Ружа (Lemko)
04. Polsko-Magyar Set (Polish-Hungarian)
05. Чорна Кура (Transcarpathian)
06. Labos Magyaros/Hojna (Hungarian/Scango)
07. Душко Моя (Lemko-Rusyn)
08. Коломийка (Hutsul/Boiko/Hungarian)
09. Segoiner Polka (Gypsy)
10. Млинок (Ukrainian)
11. Eddig Vendeg (Hungarian)
12. Русалоньки (Ukrainian)
13. Hora (Transylvanian)
14. Kecskes (Romanian-Csango)
15. Коляда (Ukrainian)
EAC log
Exact Audio Copy V1.0 beta 3 from 29. August 2011

Отчёт EAC об извлечении, выполненном 19. августа 2012, 19:12

Бурдон / Re:Карпатія

Дисковод: PHILIPS SPD2519T Adapter: 2 ID: 0

Режим чтения : Достоверность
Использование точного потока : Да
Отключение кэша аудио : Да
Использование указателей C2 : Нет

Коррекция смещения при чтении : 6
Способность читать области Lead-in и Lead-out : Нет
Заполнение пропущенных сэмплов тишиной : Да
Удаление блоков с тишиной в начале и конце : Нет
При вычислениях CRC использовались нулевые сэмплы : Да
Интерфейс : Встроенный Win32-интерфейс для Win NT/2000

Выходной формат : Пользовательский кодировщик
Выбранный битрейт : 1024 kBit/s
Качество : Высокий
Добавление ID3-тега : Нет
Утилита сжатия : D:\soft_2\EAC\Exact Audio Copy\Flac\flac.exe
Дополнительные параметры : -V -8 -T "Date=%year%" -T "Genre=%genre%" %source%

TOC извлечённого CD

Трек | Старт | Длительность | Начальный сектор | Конечный сектор
---------------------------------------------------------------------
1 | 0:00.00 | 6:27.54 | 0 | 29078
2 | 6:27.54 | 3:33.16 | 29079 | 45069
3 | 10:00.70 | 3:30.38 | 45070 | 60857
4 | 13:31.33 | 4:04.04 | 60858 | 79161
5 | 17:35.37 | 3:43.10 | 79162 | 95896
6 | 21:18.47 | 5:23.62 | 95897 | 120183
7 | 26:42.34 | 3:13.31 | 120184 | 134689
8 | 29:55.65 | 2:58.10 | 134690 | 148049
9 | 32:54.00 | 2:56.23 | 148050 | 161272
10 | 35:50.23 | 3:08.52 | 161273 | 175424
11 | 38:59.00 | 5:49.70 | 175425 | 201669
12 | 44:48.70 | 1:03.36 | 201670 | 206430
13 | 45:52.31 | 5:15.62 | 206431 | 230117
14 | 51:08.18 | 4:26.10 | 230118 | 250077
15 | 55:34.28 | 3:33.54 | 250078 | 266106

Характеристики диапазона извлечения и сообщения об ошибках

Выбранный диапазон

Имя файла E:\Музіка!\from EAC\Бурдон\2006 - Re-Карпатія\Бурдон - Re-Карпатія.wav

Пиковый уровень 100.0 %
Скорость извлечения 7.3 X
Качество диапазона 99.9 %
CRC теста 470215CC
CRC копии 470215CC
Копирование... OK

Ошибок не произошло

AccurateRip: сводка

Трек 1 отсутствует в базе данных
Трек 2 отсутствует в базе данных
Трек 3 отсутствует в базе данных
Трек 4 отсутствует в базе данных
Трек 5 отсутствует в базе данных
Трек 6 отсутствует в базе данных
Трек 7 отсутствует в базе данных
Трек 8 отсутствует в базе данных
Трек 9 отсутствует в базе данных
Трек 10 отсутствует в базе данных
Трек 11 отсутствует в базе данных
Трек 12 отсутствует в базе данных
Трек 13 отсутствует в базе данных
Трек 14 отсутствует в базе данных
Трек 15 отсутствует в базе данных

Ни одного трека нет в базе AccurateRip

Конец отчёта

==== Контрольная сумма отчёта 6149FA770E6FC21CBA7AC53BE958DD54626B708A517E7AD40EC5A7A1E7F1E41E ====
Спектр
Виконавці:
    Олена Єременко - скрипка, спів (10, 12, 15), дзвіночки (15)
    Оксана Гринько - спів
    Любомир Іщук - таіко, перкусія, спів (15)
    Рост Татомир - бузукі, спів (03, 05, 08, 11), ліра колісна (01, 15)
    Іван Огар - контрабас

    почесний гість:
    Михайло Качалов - фіделія, спів (15)

Тривалість: 00:59:08
Мова: українська (03, 07, 08, 10, 12, 15); угорська (11); відсутня (01, 02, 04-06, 09, 13, 14)
Аудіо-кодек: FLAC
Бітрейт: 819 кб/с

Видавець: Бурдон фольк бенд
2006 - Вам Колядочка

01. Миколай/Сам пан у злоті
02. Дєкуймо Богу
03. А в нашого пана
04. Коляда (Ой через поле)
05. Нова радість
06. Чи дома дома/Там на річці, на Йордані
07. Тропар/По всему світу
EAC log
Exact Audio Copy V1.0 beta 3 from 29. August 2011

Отчёт EAC об извлечении, выполненном 20. августа 2012, 22:40

Бурдон / Вам Колядочка

Дисковод: PHILIPS SPD2519T Adapter: 2 ID: 0

Режим чтения : Достоверность
Использование точного потока : Да
Отключение кэша аудио : Да
Использование указателей C2 : Нет

Коррекция смещения при чтении : 6
Способность читать области Lead-in и Lead-out : Нет
Заполнение пропущенных сэмплов тишиной : Да
Удаление блоков с тишиной в начале и конце : Нет
При вычислениях CRC использовались нулевые сэмплы : Да
Интерфейс : Встроенный Win32-интерфейс для Win NT/2000

Выходной формат : Пользовательский кодировщик
Выбранный битрейт : 1024 kBit/s
Качество : Высокий
Добавление ID3-тега : Нет
Утилита сжатия : D:\soft_2\EAC\Exact Audio Copy\Flac\flac.exe
Дополнительные параметры : -V -8 -T "Date=%year%" -T "Genre=%genre%" %source%

TOC извлечённого CD

Трек | Старт | Длительность | Начальный сектор | Конечный сектор
---------------------------------------------------------------------
1 | 0:00.00 | 8:29.28 | 0 | 38202
2 | 8:29.28 | 3:42.32 | 38203 | 54884
3 | 12:11.60 | 2:46.10 | 54885 | 67344
4 | 14:57.70 | 3:35.06 | 67345 | 83475
5 | 18:33.01 | 3:04.12 | 83476 | 97287
6 | 21:37.13 | 4:10.40 | 97288 | 116077
7 | 25:47.53 | 4:00.48 | 116078 | 134125

Характеристики диапазона извлечения и сообщения об ошибках

Выбранный диапазон

Имя файла E:\Музіка!\from EAC\Бурдон\2006 - Вам Колядочка\Бурдон - Вам Колядочка.wav

Пиковый уровень 100.0 %
Скорость извлечения 2.3 X
Качество диапазона 100.0 %
CRC теста B1860C5B
CRC копии B1860C5B
Копирование... OK

Ошибок не произошло

AccurateRip: сводка

Трек 1 отсутствует в базе данных
Трек 2 отсутствует в базе данных
Трек 3 отсутствует в базе данных
Трек 4 отсутствует в базе данных
Трек 5 отсутствует в базе данных
Трек 6 отсутствует в базе данных
Трек 7 отсутствует в базе данных

Ни одного трека нет в базе AccurateRip

Конец отчёта

==== Контрольная сумма отчёта B8E7CFBD651E95E70B9AFB97D4775BD5971D76E174836684DE69B8EC40D066E7 ====
Спектр
Виконавці:
    Олена Єременко - скрипка, спів, дзвіночки
    Оксана Гринько - спів, дзвіночки
    Любомир Іщук - бузукі, спів, перкусія
    Іван Огар - контрабас, спів
    Рост Татомир - ліра колісна, спів, бубен

    почесний гість:
    Едуард Іванюшенко - спів, перкусія, дзвіночки

Тривалість: 00:29:48
Мова: українська
Аудіо-кодек: FLAC
Бітрейт: 723 кб/с

Видавець: Бурдон фольк бенд
2008 - Тайстра Чугайстра

01. Веснянка (Ukrainian)
02. Лобода (Ukrainian)
03. De Mina (Romanian)
04. Haiduk(Goral/Jewish/Polish)
05. Oro (Bulgarian)
06. Буковинська (Bukovinian)
07. Sharena Gaida (Bulgarian)
08. Cetvorno (Bulgarian)
09. Іваньо (Ukrainian)
10. Ой не жалуй моя мила (Ukrainian)
11. Гуцулка (Western Ukrainian)
12. Ardeleana/Решето (Transylvanian/Ukrainian)
13. Тернопільський вальс (Ukrainian)
14. На кладочці (Ukrainian)
15. Ой долин долиною (Ukrainian)
EAC log
Exact Audio Copy V1.0 beta 3 from 29. August 2011

Отчёт EAC об извлечении, выполненном 25. августа 2012, 17:04

Бурдон / Тайстра Чугайстра

Дисковод: PHILIPS SPD2519T Adapter: 2 ID: 0

Режим чтения : Достоверность
Использование точного потока : Да
Отключение кэша аудио : Да
Использование указателей C2 : Нет

Коррекция смещения при чтении : 6
Способность читать области Lead-in и Lead-out : Нет
Заполнение пропущенных сэмплов тишиной : Да
Удаление блоков с тишиной в начале и конце : Нет
При вычислениях CRC использовались нулевые сэмплы : Да
Интерфейс : Встроенный Win32-интерфейс для Win NT/2000

Выходной формат : Пользовательский кодировщик
Выбранный битрейт : 1024 kBit/s
Качество : Высокий
Добавление ID3-тега : Нет
Утилита сжатия : D:\soft_2\EAC\Exact Audio Copy\Flac\flac.exe
Дополнительные параметры : -V -8 -T "Date=%year%" -T "Genre=%genre%" %source%

TOC извлечённого CD

Трек | Старт | Длительность | Начальный сектор | Конечный сектор
---------------------------------------------------------------------
1 | 0:00.00 | 3:18.12 | 0 | 14861
2 | 3:18.12 | 6:24.15 | 14862 | 43676
3 | 9:42.27 | 3:04.38 | 43677 | 57514
4 | 12:46.65 | 5:03.47 | 57515 | 80286
5 | 17:50.37 | 3:29.09 | 80287 | 95970
6 | 21:19.46 | 3:22.01 | 95971 | 111121
7 | 24:41.47 | 3:02.48 | 111122 | 124819
8 | 27:44.20 | 9:20.26 | 124820 | 166845
9 | 37:04.46 | 1:39.67 | 166846 | 174337
10 | 38:44.38 | 7:45.28 | 174338 | 209240
11 | 46:29.66 | 4:08.72 | 209241 | 227912
12 | 50:38.63 | 3:52.43 | 227913 | 245355
13 | 54:31.31 | 4:16.29 | 245356 | 264584
14 | 58:47.60 | 4:15.07 | 264585 | 283716
15 | 63:02.67 | 5:40.65 | 283717 | 309281

Характеристики диапазона извлечения и сообщения об ошибках

Выбранный диапазон

Имя файла E:\Музіка!\from EAC\Бурдон\2008 - Тайстра Чугайстра\Бурдон - Тайстра Чугайстра.wav

Пиковый уровень 100.0 %
Скорость извлечения 7.5 X
Качество диапазона 99.9 %
CRC теста AC8A4279
CRC копии AC8A4279
Копирование... OK

Ошибок не произошло

AccurateRip: сводка

Трек 1 отсутствует в базе данных
Трек 2 отсутствует в базе данных
Трек 3 отсутствует в базе данных
Трек 4 отсутствует в базе данных
Трек 5 отсутствует в базе данных
Трек 6 отсутствует в базе данных
Трек 7 отсутствует в базе данных
Трек 8 отсутствует в базе данных
Трек 9 отсутствует в базе данных
Трек 10 отсутствует в базе данных
Трек 11 отсутствует в базе данных
Трек 12 отсутствует в базе данных
Трек 13 отсутствует в базе данных
Трек 14 отсутствует в базе данных
Трек 15 отсутствует в базе данных

Ни одного трека нет в базе AccurateRip

Конец отчёта

==== Контрольная сумма отчёта 18E3EFCEC824C58C96FB635DA74B32EBC4E9B3F5E21CABDD1A02FB5E2A172DAD ====
Спектр
Виконавці:
    Олена Єремеко - скрипка, спів, viori cu goarna (03, 08), тамбурин (07)
    Оксана Гринько - спів, акордеон, телинка
    Михайло Качалов - фіделя, тамбурин (07)
    Любомир Іщук - бубен, думбек, спів (06, 10), ліра колісна (10, 13, 14, 15), дримба
    Іван Огар - контрабас
    Рост Татомир - бузукі, бек спів, бубен (10), ліра колісна (06, 12)

Тривалість: 01:08:44
Мова: українська (01, 02, 09, 10, 14, 15); польська (04); болгарська (07); відсутня (03, 05, 06, 08, 11, 12, 13)
Аудіо-кодек: FLAC
Бітрейт: 871 кб/с

Видавець: Бурдон фольк бенд
2013 - Дівиця

01. Зозулечка (Ukrainian)
02. Степанида (Central Ukrainian)
03. Ramo druze moj/Sirba (Balkan)
04. Мороз (West Ukrainian)
05. Рудий (Ukrainian)
06. Гуси (Ukrainian/Macedonian)
07. Fato mori dusmanke (Macedonian)
08. Maruntel (Romanian/Chango)
09. Milo mou kokkino (Greek)
10. Рано (Central Ukrainian)
11. Дівиця (by Max Petrenko)
12. Лужок (East Ukrainian)
EAC log
Exact Audio Copy V1.0 beta 3 from 29. August 2011

Отчёт EAC об извлечении, выполненном 1. апреля 2013, 23:33

Бурдон / Дівиця

Дисковод: HL-DT-STDVD-RAM GSA-H58N Adapter: 0 ID: 0

Режим чтения : Достоверность
Использование точного потока : Да
Отключение кэша аудио : Да
Использование указателей C2 : Нет

Коррекция смещения при чтении : 102
Способность читать области Lead-in и Lead-out : Нет
Заполнение пропущенных сэмплов тишиной : Да
Удаление блоков с тишиной в начале и конце : Нет
При вычислениях CRC использовались нулевые сэмплы : Да
Интерфейс : Встроенный Win32-интерфейс для Win NT/2000

Выходной формат : Пользовательский кодировщик
Выбранный битрейт : 1024 kBit/s
Качество : Высокий
Добавление ID3-тега : Нет
Утилита сжатия : D:\soft_2\EAC\Exact Audio Copy\Flac\flac.exe
Дополнительные параметры : -V -8 -T "Date=%year%" -T "Genre=%genre%" %source%

TOC извлечённого CD

Трек | Старт | Длительность | Начальный сектор | Конечный сектор
---------------------------------------------------------------------
1 | 0:00.00 | 4:30.58 | 0 | 20307
2 | 4:30.58 | 3:17.14 | 20308 | 35096
3 | 7:47.72 | 5:50.58 | 35097 | 61404
4 | 13:38.55 | 4:55.28 | 61405 | 83557
5 | 18:34.08 | 3:05.47 | 83558 | 97479
6 | 21:39.55 | 7:23.55 | 97480 | 130759
7 | 29:03.35 | 4:01.16 | 130760 | 148850
8 | 33:04.51 | 4:34.66 | 148851 | 169466
9 | 37:39.42 | 4:44.08 | 169467 | 190774
10 | 42:23.50 | 3:57.73 | 190775 | 208622
11 | 46:21.48 | 3:34.23 | 208623 | 224695
12 | 49:55.71 | 5:47.28 | 224696 | 250748

Характеристики диапазона извлечения и сообщения об ошибках

Выбранный диапазон

Имя файла N:\Роздачі\Бурдон\Бурдон - Дискографія (3 альбоми) (2006-2008) [FLAC]\01\Бурдон - Дівиця.wav

Пиковый уровень 99.3 %
Скорость извлечения 2.6 X
Качество диапазона 99.9 %
CRC теста C2C314DF
CRC копии C2C314DF
Копирование... OK

Ошибок не произошло

AccurateRip: сводка

Трек 1 отсутствует в базе данных
Трек 2 отсутствует в базе данных
Трек 3 отсутствует в базе данных
Трек 4 отсутствует в базе данных
Трек 5 отсутствует в базе данных
Трек 6 отсутствует в базе данных
Трек 7 отсутствует в базе данных
Трек 8 отсутствует в базе данных
Трек 9 отсутствует в базе данных
Трек 10 отсутствует в базе данных
Трек 11 отсутствует в базе данных
Трек 12 отсутствует в базе данных

Ни одного трека нет в базе AccurateRip

Конец отчёта

==== Контрольная сумма отчёта A68B0B3D024F6B7966FE98E75956EC013F060A16A8BE5603DEAF1FC6604A7325 ====
Спектр
Виконавці:
    Рост Татомир - бузукі, спів, саз, слайд-гітара
    Олена Єременко - скрипка, спів, морахарпа, мандоліна, vioari cu goarna
    Любомир Іщук - великий барабан, дарбука, мандоліна, діджеріду, дримба, darahon, даф, бендір
    Дана Бончук - спів та підспівки
    Іван Огар - контрабас, підспівки
    Михайло Качалов - фіделя, підспівки

    почесний гість:
    Макс Паленко - спів (11)

Тривалість: 00:55:43
Мова: українська (01, 02, 04-06, 10-12); хорватська (03, 07); грецька (09); відсутня (08)
Аудіо-кодек: FLAC
Бітрейт: 887 кб/с

Видавець: Наш Формат
Тривалість: 03:32:53
Аудіо-кодек: FLAC
Бітрейт: 723-887 кб/с
Джерело: власні ріпи власних CD
Додаткова інформація
Біографія гурту...

Молоді музиканти створили гурт в 2002 році і швидко розвинули своє музикування до вражаючого рівня та вибудували багатий репертуар з традиційних мелодій, ритуальних пісень, давніх балад та жвавих танців. Учасники багатьох фестивалів в Україні, Польщі, Угорщині, Естонії, Німеччині, Фінляндії та Канаді, вони всюди надзвичайно легко запалюють слухачів різних поколінь.

Репертуар Бурдону побудований переважно на традиційній музиці з України, Угорщини та Румунії. Їх музика поєднує давні мелодії з сучасним аранжуванням, що разом творить живий, драматичний світ повний захоплення, любові, містики і чарівності. Багато пісень взято з локальної традиції унікальних етнічних груп, котрі живуть на теренах карпатського регіону, як то: лемки, бойки та гуцули. Зі всім цим багатокультурним міксом Бурдон творить своє власне унікальне звучання з допомогою жіночих вокалів, скрипок, бузукі, ліри колісної, морахарпи, дримби, мандоліни, контрабасу та перкусії.

* * *

Львівський фольк бенд, створений у 2002 році, виконує музику iнспiровану переважно схiдно-європейським і, зокрема, карпатським фольклором, проте джерела його натхнень знаходяться на теренах мало не цiлої Європи, від Скандинавiї до Балканiв. Задля кращого вiдтворення давнього та живого звучання етнiчної музики, гурт використовує народнi iнструменти, часто досить незвичнi, як от давня фiделя, балканська бузукi і тапан, румунська віорі цу ґоарна, українська ліра колісна, схiдна дарабука, шведська морахарпа, австралійське діджеріду, турецький саз тощо. Та попри фольклорні впливи музиканти домагаються сучасного, свiжого трактування традицiйної музики, не претендуючи на автентичну вiдповідність матерiалу.

Серед здобуткiв гурту участь у багатьох етнічних фестивалях по Україні, Польщі, Білорусі, Росії, Хорватії, Угорщині, Узбекістані, Німеччині, Естонії, Бельгії, Швеції, Фінляндії та Канаді.

Серед найпомітніших українських фестивалів – Флюгери Львова (2003, 2006, 2008), Шешори (2004-08) та Країна Мрій (Київ, 2007). З польських: Lemkowska Watra (Ждиня, 2003), XII Jaz Festiwal Muzyki Improwizowanej (Zabrze, 2006), Ukraina Viva (Wroclaw, 2006) i Mikołajki Folkowe (Lublin, 2006).

А також – бiлоруський Навагрудак (2004, 2006), угорський Esztenás (Miskolc, 2007), канадський International Week (Edmonton, 2008), естонський Viljandi (2009), хорватський Cest is d' best (Zagreb, 2010), бельгійський Gooikoorts (2010), швецький Korrö Folkmusikfestival (Корро, 2010) та узбецький Sharq Taronalari (Samarqand, 2011).

* * *

Фолькові експерименти гурту колись починалися зi скандинавcької народної музики, далi дiапазон розширився до европейської, а згодом до східно-европейської музики. Коло їх етнографiчних зацiкавлень нiколи не обмежувалось окремим регiоном, тому в програмi були присутні також бельгiйськi, англiйськi, провансальськi, сицилiйськi та французькi танцi.

На сьогоднішній день Бурдоном награно 3 альбоми. На дебютному компакт-диску Re:Карпатія, що виданий київською рекординговою компанією Атлантік, окрім мадярських чардашів, молдавської кадинжи та циганської польки можна почути й центрально-українські пісні, лемківські балади, русинські чардаші, а також гуцульські коломийки. Альбом містить також давні традиційні танці від чанґо (Csángó) - етнічної меншини мадярів з територій Молдавії, які зберегли в своїй музиці характерні балканські та румунські ритми.

Різдвяний проект Вам колядочка містить обробки давній українських колядок. В третьому альбомі Тайстра Чугайстра окрім центрально-українських пісень, гуцульських та буковинських коломийок опрацьовано також ґуральські та болгарські пісні, румунські та балканські танці.

(з офіційного сайту)

Якщо Ви справді бажаєте підтримати українське - після прослуховування, якщо музика вам сподобалась, придбайте ліцензійний диск. Підтримаймо вітчизняних виконавців!


Золотий реліз (завантажене не впливає на рейтинг)
 Трекер:    Зареєстрований   

Завантажити / скачати українську музику



відео для новачків



 Зареєстрований:   2013-04-09 13:27
 Розмір:   1.39 GB 
 Оцінка музики:   9.2/10 (Голосів: 22)
   
gosha.samovar 
VIP


З нами з: 08.09.10
Востаннє: 05.12.16
Повідомлень: 400

2013-04-09 13:31  
Увага!
Торрент-файл оновлено. До роздачі додано новий альбом "Дівиця" 2013 року.

ssTAss 
Модератор музики


З нами з: 05.07.08
Востаннє: 05.12.16
Повідомлень: 10941

2013-04-09 15:41  
gosha.samovar написано:

Рост Татомир - bouzouki, vocal, saz, slide-guitar

Олена Єременко - violin, vocal, moraharpa, mandolin, vioari cu goarna

Любомир Іщук - big drum, darbuka, mandolin, didgeridoo, jews harp, darahon, daf, bendir

Дана Бончук - lead and back vocals

Іван Огар - double bass, back vocal

Михайло Качалов - fiddle, back vocal

прохання інструменти перекласти українською

gosha.samovar 
VIP


З нами з: 08.09.10
Востаннє: 05.12.16
Повідомлень: 400

2013-04-09 18:14  
ssTAss написано:
прохання інструменти перекласти українською

Що зміг.

sko4 
Поважний учасник


З нами з: 23.06.08
Востаннє: 05.12.16
Повідомлень: 181

2013-04-09 23:03  
musicfan 
Модератор музики


З нами з: 27.01.09
Востаннє: 05.12.16
Повідомлень: 893

2013-04-10 07:40  
gosha.samovar написано:
11. Дівиця (by Max Petrenko)

gosha.samovar написано:
почесний гість:
Макс Павленко - спів (11)

Бурдон та Макс Паленко - Дівиця

Цитата:
"Колись, році в 97-му минулого століття, почув я гурт Право на Казку, де грав тоді Ростик Татомир і була там така пісня про "Ходить сорока коло потока". І так от вона мене зачепила, що в наступні кілька днів якось досить швидко, під її враженням і придумалася "Дівиця". І почалися перетворення. Право на Казку перестав існувати в матеріальному світі, натомість, з'явився Бурдон з тим же Татомиром за кермом. А "Дівиця" поспівалася, поспівалася, десь, кимось і, зробивши коло, повернулася туди, звідки, властиво, й вийшла. До Бурдону. Ось так, запустили колись таку собі іскорку, вона політала, політала і повернулася, але в іншому вигляді. Такі от чудеса."

©Макс Паленко

gosha.samovar 
VIP


З нами з: 08.09.10
Востаннє: 05.12.16
Повідомлень: 400

2013-04-10 07:52  
musicfan
Перепрошую. Звичайно ж, Паленко. Дякую, виправив.
Якщо кому цікаво, інтерв'ю з Оленою Єременко:

medroid 
Свій


З нами з: 06.12.08
Востаннє: 03.12.16
Повідомлень: 77

2013-04-10 16:16  
ssTAss
.. а можливо "Дівицю" в МП3 виставити?.....

ssTAss 
Модератор музики


З нами з: 05.07.08
Востаннє: 05.12.16
Повідомлень: 10941

2013-04-10 16:19  
medroid написано:

ssTAss

.. а можливо "Дівицю" в МП3 виставити?.....

???
викладайте

medroid 
Свій


З нами з: 06.12.08
Востаннє: 03.12.16
Повідомлень: 77

2013-04-10 16:49  
.. звиняйте, то не до вас було запитання...., до речі чим отой FLAC можна записати - як диск, МОнкіАудіо не бачить цей формат....
.. все, все.. завантажив (Total Audio Converter 5.1.0) .. розібрався, конвертнув, записав.. Wink (1)

ssTAss 
Модератор музики


З нами з: 05.07.08
Востаннє: 05.12.16
Повідомлень: 10941

2013-04-10 19:33  
medroid написано:
розібрався, конвертнув, записав

і все зіпсували
завантажте собі збірку фубар і буде Вам щастя

Ваш часовий пояс: GMT + 2 Години

Нова тема   Відповісти