Завантажити та скачати торренти українською


Троя / Troy (2004) [Театральна версія / Theatrical Cut] Remux 2xUkr/Eng | Sub Ukr/Eng

Нові коментарі

Нова тема   Відповісти
Останній раз роздавалося leroykendall (2016-11-20)
Автор Повідомлення
ratbol 
Модератор HD


З нами з: 03.02.09
Востаннє: 01.12.16
Повідомлень: 1088

2012-08-31 11:48  
Троя / Troy (2004) [Театральна версія / Theatrical Cut] Remux 2xUkr/Eng | Sub Ukr/Eng

Троя / Troy (2004) [Театральна версія / Theatrical Cut] Remux 2xUkr/Eng | Sub Ukr/Eng


Жанр: пригодницький, драма
Країна: США, Мальта, Велика Британія



Кіностудія / кінокомпанія: Warner Bros. Pictures, Helena Productions, Latina Pictures
Режисер: Вольфґанґ Петерсен
Актори: Бред Піт, Ерік Бана, Орландо Блум, Браян Кокс, Брендон Ґлісон, Даян Крюґер, Ґаррет Гедлунд та інші.

Сюжет:
Адаптація величного епосу Гомера, фільм продемонструє напад на Трою об'єднаними грецькими силами і хроніки долі чоловіків, котрі беруть участь в цій війні.


Тривалість: 02:42:47
Якість:
Відео:
кодек: VC-1
розмір кадру: 1920 х 1080
бітрейт: 13 Мб/с

Аудіо #1:
мова: українська
переклад: багатоголосий закадровий | студія 1+1
кодек: 5.1
бітрейт: 448 кб/с
Інфо про доріжку:
Аудіо #2:
мова: українська
переклад: багатоголосий закадровий | запис з телеканалу Інтер (мабуть Так Треба Продакшн)
кодек: 5.1
бітрейт: 448 кб/с

Аудіо #3:
мова: англійська
переклад: оригінал
кодек: 5.1
бітрейт: 640 кб/с

Джерело озвучення:
&

Субтитри #1-2:
мова: українська | форсовані, повні
тип: програмні (м'які)
формат: *.srt

Субтитри #3:
мова: англійська | для людей із вадами слуху
тип: програмні (м'які)
формат: *.srt
MediaInfo
Код:
General
Unique ID                        : 174452944226168553002854151769441436647 (0x833E6A3802F946B590043861F03C03E7)
Complete name                    : \\Mediaserver\f\Troy [Theatrical Cut] (2004) [Ukr, Eng. Sub - Ukr, Eng] Remux [Hurtom].mkv
Format                           : Matroska
Format version                   : Version 2
File size                        : 16.9 GiB
Duration                         : 2h 42mn
Overall bit rate                 : 14.9 Mbps
Movie name                       : Troy [Theatrical Cut] (2004) [Hurtom]
Encoded date                     : UTC 2012-08-31 08:29:27
Writing application              : mkvmerge v5.4.0 ('Piper') built on Mar 10 2012 13:34:39
Writing library                  : libebml v1.2.3 + libmatroska v1.3.0

Video
ID                               : 1
Format                           : VC-1
Format profile                   : [email protected]
Codec ID                         : WVC1
Codec ID/Hint                    : Microsoft
Duration                         : 2h 42mn
Bit rate                         : 13.0 Mbps
Width                            : 1 920 pixels
Height                           : 1 080 pixels
Display aspect ratio             : 16:9
Frame rate                       : 23.976 fps
Chroma subsampling               : 4:2:0
Bit depth                        : 8 bits
Scan type                        : Progressive
Scan order                       : Top Field First
Compression mode                 : Lossy
Bits/(Pixel*Frame)               : 0.262
Stream size                      : 14.8 GiB (88%)
Language                         : English
Default                          : Yes
Forced                           : No

Audio #1
ID                               : 2
Format                           : AC-3
Format/Info                      : Audio Coding 3
Mode extension                   : CM (complete main)
Codec ID                         : A_AC3
Duration                         : 2h 42mn
Bit rate mode                    : Constant
Bit rate                         : 448 Kbps
Channel(s)                       : 6 channels
Channel positions                : Front: L C R, Side: L R, LFE
Sampling rate                    : 48.0 KHz
Bit depth                        : 16 bits
Compression mode                 : Lossy
Stream size                      : 522 MiB (3%)
Title                            : 5.1 [448 Kbps] — багатоголосий закадровий | студія 1+1
Language                         : Ukrainian
Default                          : Yes
Forced                           : No

Audio #2
ID                               : 3
Format                           : AC-3
Format/Info                      : Audio Coding 3
Mode extension                   : CM (complete main)
Codec ID                         : A_AC3
Duration                         : 2h 42mn
Bit rate mode                    : Constant
Bit rate                         : 448 Kbps
Channel(s)                       : 6 channels
Channel positions                : Front: L C R, Side: L R, LFE
Sampling rate                    : 48.0 KHz
Bit depth                        : 16 bits
Compression mode                 : Lossy
Stream size                      : 522 MiB (3%)
Title                            : 5.1 [448 Kbps] — багатоголосий закадровий | запис з телеканалу Інтер
Language                         : Ukrainian
Default                          : No
Forced                           : No

Audio #3
ID                               : 4
Format                           : AC-3
Format/Info                      : Audio Coding 3
Mode extension                   : CM (complete main)
Codec ID                         : A_AC3
Duration                         : 2h 42mn
Bit rate mode                    : Constant
Bit rate                         : 640 Kbps
Channel(s)                       : 6 channels
Channel positions                : Front: L C R, Side: L R, LFE
Sampling rate                    : 48.0 KHz
Bit depth                        : 16 bits
Compression mode                 : Lossy
Stream size                      : 745 MiB (4%)
Title                            : 5.1 [640 Kbps] — оригінал
Language                         : English
Default                          : No
Forced                           : No

Text #1
ID                               : 5
Format                           : UTF-8
Codec ID                         : S_TEXT/UTF8
Codec ID/Info                    : UTF-8 Plain Text
Title                            : Форcовані
Language                         : Ukrainian
Default                          : Yes
Forced                           : Yes

Text #2
ID                               : 6
Format                           : UTF-8
Codec ID                         : S_TEXT/UTF8
Codec ID/Info                    : UTF-8 Plain Text
Title                            : Повні
Language                         : Ukrainian
Default                          : No
Forced                           : No

Text #3
ID                               : 7
Format                           : UTF-8
Codec ID                         : S_TEXT/UTF8
Codec ID/Info                    : UTF-8 Plain Text
Title                            : Повні для людей із вадами слуху
Language                         : English
Default                          : No
Forced                           : No



Робота над релізом:
SsashI — запис звуку з ТБ від Студії 1+1;
Lan — синхронізація українських доріжок;
w2958l — обробка українських субтитрів;
ratbol — пошук, викачування, додавання, оформлення.

Цитата:
Подяка leroykendall за надання сирих українських субтитрів w2958l для обробки, а згодом готових з релізу мені.


Джерело: &
Особиста оцінка: 9


Срібний реліз (на рейтинг впливає 50% завантаженого)
 Трекер:    Зареєстрований   

Завантажити / скачати фільм українською



відео для новачків



 Зареєстрований:   2012-08-31 14:48
 Розмір:   16.92 GB 
 Оцінка фільму:   9.5/10 (Голосів: 13)
   
bot 
робот


З нами з: 30.09.07
Востаннє: 26.05.05
Повідомлень: 15975

2012-08-31 14:48  
Тему перенесено з Анонси релізів від Відео Гуртом до форуму Фільми в HD


ratbol

Rah 
VIP


З нами з: 02.08.09
Востаннє: 30.11.16
Повідомлень: 307

2012-08-31 16:00  
Які озвучки вважауться ліпшими 1+1 чи Інтера???
JACKUS 
Відео Гуртом - фільмокрай
Відео Гуртом - фільмокрай


З нами з: 08.10.09
Востаннє: 22.11.16
Повідомлень: 1943

2012-08-31 16:30  
1+1

Додано через 42 секунди:

Але кому як довподоби. може тобі сподобається як Інтер озвучив

TARIK111 
Свій


З нами з: 22.05.09
Востаннє: 29.11.16
Повідомлень: 117

2012-09-09 01:30  
Якби хтось виложив 1080p з бітрейдом 8000 кб/с добре було
Sensetivity 
VIP


З нами з: 03.05.11
Востаннє: 03.01.13
Повідомлень: 2019

2012-09-09 07:44  
TARIK111
немає сенсу робить 1080р ріп, якщо сорс має 13 мбіт, тут імхо краще просто скачати ремукс.

TARIK111 
Свій


З нами з: 22.05.09
Востаннє: 29.11.16
Повідомлень: 117

2012-09-09 17:34  
Sensetivity
Я люблю розтягувати на весь екран, а вцьому форматі неможливо це зробити.

Rah 
VIP


З нами з: 02.08.09
Востаннє: 30.11.16
Повідомлень: 307

2013-12-29 17:12  
Добрий реліз! але ту доріжку від Інтер, я би видалив, вона дуже жахлива.
Ваш часовий пояс: GMT + 2 Години

Нова тема   Відповісти