Завантажити та скачати торренти українською


Зараження / Carriers (2009) 720p Ukr/Eng | Sub Ukr/Eng/Spa

Нові коментарі

Нова тема   Відповісти
Автор Повідомлення
DеLight 
Відео Гуртом - фільмокрай
Відео Гуртом - фільмокрай


З нами з: 24.08.11
Востаннє: 17.11.16
Повідомлень: 664

2012-08-30 17:09  
Зараження / Carriers (2009) 720p Ukr/Eng | Sub Ukr/Eng/Spa

Зараження / Carriers (2009) 720p Ukr/Eng | Sub Ukr/Eng/Spa



Альтернативна обкладика Blu-ray




Жанр: драма, жахи, трилер
Країна: США



Кіностудія / кінокомпанія: Anibrain, Brainstorm Digital, Great FX, Creative Character Engineering (CCE) Inc. / Paramount Vantage
Режисер: Девід Пастор / David Pastor, Алекс Пастор / Alex Pastor
Актори: Лу Тейлор Пуччі / Lou Taylor Pucci, Кріс Пайн / Chris Pine, Пайпер Перабо / Piper Perabo, Емілі ВанКемп / Emily VanCamp, Крістофер Мелоні / Christopher Meloni, Кірнан Шипка / Kiernan Shipka, Рон МакКлері / Ron McClary, Марк Мозес / Mark Moses, Джош Беррі / Josh Berry, Тім Дженіс / Tim Janis, Дейл Меллі / Dale Malley, Ділан Кенін / Dylan Kenin, Лінн Лінч / LeAnne Lynch, Джен Каннінґем / Jan Cunningham, Мері Петерсон / Mary Peterson

Сюжет:
Жахлива інфекція вирвалася в світ. Убиваюча людей у страшних муках, вона моментально й глобально поширилася повітряно-крапельним шляхом серед людей. Четверо друзів опинилися захоплені цією епідемією в дорозі. Постійне пересування стало для них єдиним шляхом на порятунок. Уникаючи контактів, вони прагнуть покинути заражену територію, але чи вдасться їм вижити?..





Тривалість: 01:26:10
Якість: 720p [ріп від DON]

Відео:
кодек:
розмір кадру: 1280 x 536
бітрейт: 6 767 кб/с

Аудіо #1:
мова: українська
переклад: багатоголосий закадровий
кодек: 2.0
бітрейт: 192 кб/с

Джерело озвучення:


Аудіо #2:
мова: англійська
переклад: оригінал
кодек: 5.1
бітрейт: 448 кб/с

Субтитри #1:
мова: українська
тип: програмні (м'які)
формат: *.srt
переклад: Delight (із російської, англійської)

Субтитри #2:
мова: англійська
тип: програмні (м'які)
формат: *.srt

Субтитри #3:
мова: іспанська
тип: програмні (м'які)
формат: *.srt



->переглянути<-

General
Unique ID : 251605112932444773891823214397363966015 (0xBD4961D256855F918F81BA90AF09D03F)
Complete name : D:\Torrents\Carriers (2009) 720p [Ukr, Eng] [Hurtom & HDClub].mkv
Format : Matroska
Format version : Version 2
File size : 4.37 GiB
Duration : 1h 26mn
Overall bit rate : 7 267 Kbps
Movie name : Carriers (2009) 720p [Ukr, Eng] [Hurtom & HDClub] by Delight
Encoded date : UTC 2012-08-30 13:21:58
Writing application : mkvmerge v5.7.0 ('The Whirlwind') built on Jul 8 2012 20:08:51
Writing library : libebml v1.2.3 + libmatroska v1.3.0

Video
ID : 1
Format : AVC
Format/Info : Advanced Video Codec
Format profile : [email protected]
Format settings, CABAC : Yes
Format settings, ReFrames : 5 frames
Codec ID : V_MPEG4/ISO/AVC
Duration : 1h 26mn
Bit rate : 6 767 Kbps
Width : 1 280 pixels
Height : 536 pixels
Display aspect ratio : 2.40:1
Frame rate mode : Constant
Frame rate : 24.000 fps
Color space : YUV
Chroma subsampling : 4:2:0
Bit depth : 8 bits
Scan type : Progressive
Bits/(Pixel*Frame) : 0.411
Stream size : 3.90 GiB (89%)
Title : Carriers (2009) 720p [HDClub]
Writing library : core 80 r1376M 3feaec2
Encoding settings : cabac=1 / ref=5 / deblock=1:-3:-3 / analyse=0x3:0x113 / me=umh / subme=10 / psy=1 / psy_rd=1.0:0.0 / mixed_ref=1 / me_range=64 / chroma_me=1 / trellis=2 / 8x8dct=1 / cqm=0 / deadzone=21,11 / fast_pskip=0 / chroma_qp_offset=-2 / threads=8 / sliced_threads=0 / nr=0 / decimate=1 / mbaff=0 / constrained_intra=0 / bframes=6 / b_pyramid=0 / b_adapt=2 / b_bias=0 / direct=3 / wpredb=1 / wpredp=2 / keyint=250 / keyint_min=25 / scenecut=40 / rc=2pass / mbtree=0 / bitrate=6767 / ratetol=1.0 / qcomp=0.60 / qpmin=10 / qpmax=51 / qpstep=4 / cplxblur=20.0 / qblur=0.5 / ip_ratio=1.40 / pb_ratio=1.30 / aq=1:0.60
Language : English
Default : Yes
Forced : No

Audio #1
ID : 2
Format : AC-3
Format/Info : Audio Coding 3
Mode extension : CM (complete main)
Format settings, Endianness : Big
Codec ID : A_AC3
Duration : 1h 26mn
Bit rate mode : Constant
Bit rate : 192 Kbps
Channel(s) : 2 channels
Channel positions : Front: L R
Sampling rate : 48.0 KHz
Bit depth : 16 bits
Compression mode : Lossy
Stream size : 118 MiB (3%)
Title : 2.0; 192 kbps; багатоголосий закадровий {НТН}
Language : Ukrainian
Default : Yes
Forced : No

Audio #2
ID : 3
Format : AC-3
Format/Info : Audio Coding 3
Mode extension : CM (complete main)
Format settings, Endianness : Big
Codec ID : A_AC3
Duration : 1h 26mn
Bit rate mode : Constant
Bit rate : 448 Kbps
Channel(s) : 6 channels
Channel positions : Front: L C R, Side: L R, LFE
Sampling rate : 48.0 KHz
Bit depth : 16 bits
Compression mode : Lossy
Stream size : 276 MiB (6%)
Title : 5.1; 448 kbps; original
Language : English
Default : No
Forced : No

Text #1
ID : 4
Format : UTF-8
Codec ID : S_TEXT/UTF8
Codec ID/Info : UTF-8 Plain Text
Title : full
Language : Ukrainian
Default : Yes
Forced : No

Text #2
ID : 5
Format : UTF-8
Codec ID : S_TEXT/UTF8
Codec ID/Info : UTF-8 Plain Text
Title : full
Language : English
Default : No
Forced : No

Text #3
ID : 6
Format : UTF-8
Codec ID : S_TEXT/UTF8
Codec ID/Info : UTF-8 Plain Text
Title : full
Language : Spanish
Default : No
Forced : No




->переглянути<-

















Джерело: &
Вдячний НТН за готову українську доріжку
Особиста оцінка: 8


 Трекер:    Зареєстрований   

Завантажити / скачати фільм українською



відео для новачків



 Зареєстрований:   2012-08-30 17:09
 Розмір:   4.37 GB 
 Оцінка фільму:   9.5/10 (Голосів: 11)
   
Інші релізи
   Зараження / Carriers (2009) Ukr/Eng НТН  7 / 0   1.46 GB   2012-07-17 21:24 
taras1994 
Почесний оцифрувальник літератури


З нами з: 23.03.12
Востаннє: 30.11.16
Повідомлень: 5096

2012-08-30 19:53  
фільм дуже дурний, чи може бути?
DеLight 
Відео Гуртом - фільмокрай
Відео Гуртом - фільмокрай


З нами з: 24.08.11
Востаннє: 17.11.16
Повідомлень: 664

2012-08-30 20:04  
taras1994 написано:
чи може бути

Фільм вписується в рамки "можна дивитися", цілком на рівні. Це й підтвердить більшість коментів в неті. Як що, ще й полюбляєте даний жанр, можете впевнено вантажити!

taras1994 
Почесний оцифрувальник літератури


З нами з: 23.03.12
Востаннє: 30.11.16
Повідомлень: 5096

2012-08-31 10:51  
Подивимося, як його зробили.
superbusok 
Свій


З нами з: 03.11.11
Востаннє: 04.12.16
Повідомлень: 54

2012-09-11 19:46  
Деякі епізоди фільму нелогічні. Фільм для разового перегляду.
Ваш часовий пояс: GMT + 2 Години

Нова тема   Відповісти