Завантажити та скачати торренти українською


Щасливчик / The Lucky One (2012) 720p Ukr/Eng | Sub Ukr/Eng

Нові коментарі

Нова тема   Відповісти
Автор Повідомлення
xfsthe 
Оцифрування книг Гуртом
Оцифрування книг Гуртом


З нами з: 13.02.11
Востаннє: 07.12.16
Повідомлень: 279

2012-08-29 02:52  
Щасливчик / The Lucky One (2012) 720p Ukr/Eng | Sub Ukr/Eng


Жанр: мелодрама, романтичний
Країна: CША



Кіностудія / кінокомпанія: Warner Bros. Pictures
Режисер: Скотт Хікс
Актори: Зак Ефрон, Тейлор Шиллінг, Блайт Даннер, Райлі Стюарт, Джей Р. Фергюсон, Адам Лефевр, Роберт Хейес, Джо Хрест, Расселл Дархем Комегіс, Шарон Морріс

Сюжет:
Морський піхотинець Логан Тібо зумів залишитися в живих після трьох військових місій в Іраку. Своїм талісманом він вважає фото, яке завжди носить з собою - на ньому зовсім незнайома йому жінка. Після повернення на батьківщину Тібо вирішує розшукати її, щоб зрозуміти чи це його забобонність, чи все ж таки доля.


Тривалість: 01:40:54
Якість:
Відео:
кодек:
розмір кадру: 1280 x 534
бітрейт: 4 700 кб/с

Аудіо #1:
мова: українська
переклад: професійний дубльований
кодек: 5.1
бітрейт: 448 кб/с

Аудіо #2:
мова: англійська
переклад: оригінал
кодек: 5.1
бітрейт: 1510 кб/с

Субтитри #1:
мова: українська
тип: програмні (м'які)
формат: *.srt

Субтитри #2:
мова: англійська
тип: програмні (м'які)
формат: *.srt
MediaInfo

General
Unique ID : 293169426152836890931678665963373544029 (0xDC8E60AE5E6B3B271FB1173ED0F3425D)
Complete name : The Lucky One (2012) [ukr,eng] sub[ukr,eng] 720p [Hurtom].mkv
Format : Matroska
Format version : Version 2
File size : 4.69 GiB
Duration : 1h 40mn
Overall bit rate : 6 654 Kbps
Movie name : Щасливчик / The Lucky One (2012) 720p
Encoded date : UTC 2012-08-29 00:36:34
Writing application : mkvmerge v5.7.0 ('The Whirlwind') built on Jul 8 2012 19:19:57
Writing library : libebml v1.2.3 + libmatroska v1.3.0

Video
ID : 1
Format : AVC
Format/Info : Advanced Video Codec
Format profile : [email protected]
Format settings, CABAC : Yes
Format settings, ReFrames : 12 frames
Codec ID : V_MPEG4/ISO/AVC
Duration : 1h 40mn
Bit rate : 4 700 Kbps
Width : 1 280 pixels
Height : 534 pixels
Display aspect ratio : 2.40:1
Frame rate : 23.976 fps
Color space : YUV
Chroma subsampling : 4:2:0
Bit depth : 8 bits
Scan type : Progressive
Bits/(Pixel*Frame) : 0.287
Stream size : 3.22 GiB (69%)
Title : Щасливчик / The Lucky One (2012) 720p
Writing library : core 125 r2208 d9d2288
Encoding settings : cabac=1 / ref=12 / deblock=1:-3:-3 / analyse=0x3:0x133 / me=umh / subme=10 / psy=1 / psy_rd=1.00:0.00 / mixed_ref=1 / me_range=32 / chroma_me=1 / trellis=2 / 8x8dct=1 / cqm=0 / deadzone=21,11 / fast_pskip=1 / chroma_qp_offset=-2 / threads=12 / lookahead_threads=2 / sliced_threads=0 / nr=0 / decimate=0 / interlaced=0 / bluray_compat=0 / constrained_intra=0 / bframes=7 / b_pyramid=2 / b_adapt=2 / b_bias=0 / direct=3 / weightb=1 / open_gop=0 / weightp=2 / keyint=250 / keyint_min=23 / scenecut=40 / intra_refresh=0 / rc_lookahead=80 / rc=2pass / mbtree=1 / bitrate=4700 / ratetol=1.0 / qcomp=0.60 / qpmin=0 / qpmax=69 / qpstep=4 / cplxblur=20.0 / qblur=0.5 / vbv_maxrate=30000 / vbv_bufsize=30000 / nal_hrd=none / ip_ratio=1.50 / aq=1:1.00
Language : English
Default : Yes
Forced : Yes

Audio #1
ID : 2
Format : AC-3
Format/Info : Audio Coding 3
Mode extension : CM (complete main)
Codec ID : A_AC3
Duration : 1h 40mn
Bit rate mode : Constant
Bit rate : 448 Kbps
Channel(s) : 6 channels
Channel positions : Front: L C R, Side: L R, LFE
Sampling rate : 48.0 KHz
Bit depth : 16 bits
Compression mode : Lossy
Stream size : 323 MiB (7%)
Title : 5.1 @ 448 kbps
Language : Ukrainian
Default : Yes
Forced : Yes

Audio #2
ID : 3
Format :
Format/Info : Digital Theater Systems
Codec ID : A_DTS
Duration : 1h 40mn
Bit rate mode : Constant
Bit rate : 1 510 Kbps
Channel(s) : 6 channels
Channel positions : Front: L C R, Side: L R, LFE
Sampling rate : 48.0 KHz
Bit depth : 24 bits
Compression mode : Lossy
Stream size : 1.06 GiB (23%)
Title : 5.1 @ 1510 kbps
Language : English
Default : No
Forced : No

Text #1
ID : 4
Format : UTF-8
Codec ID : S_TEXT/UTF8
Codec ID/Info : UTF-8 Plain Text
Title : DVD
Language : Ukrainian
Default : No
Forced : No

Text #2
ID : 5
Format : UTF-8
Codec ID : S_TEXT/UTF8
Codec ID/Info : UTF-8 Plain Text
Language : English
Default : No
Forced : No
Світлини:






Джерело: && http://ironclub.tv && rutor.org && podnapisi.net
Особиста оцінка: 10 - без зайвих вагань рекомендую всім!

Подяка за допомогу у створенні релізу панові Vasua95


 Трекер:    Зареєстрований   

Завантажити / скачати фільм українською



відео для новачків



 Зареєстрований:   2012-08-29 02:52
 Розмір:   4.69 GB 
 Оцінка фільму:   9.4/10 (Голосів: 21)
   
waldi-hurtom 
VIP


З нами з: 07.10.12
Востаннє: 07.12.16
Повідомлень: 611

2012-11-11 23:15  
Непоганий фільм, але... відчуття вторинності, чи то переказу раніше чутої історії, хоча начебто все оригінально. Один раз подивитись варто, особливо з коханою жінкою Happy
DеLight 
Відео Гуртом - фільмокрай
Відео Гуртом - фільмокрай


З нами з: 24.08.11
Востаннє: 17.11.16
Повідомлень: 664

2013-01-08 00:37  
Цікаво поставлений сюжет, хоча дуже вже все добре склалось, але фільм однозначно вартісний, 8/10.
Ваш часовий пояс: GMT + 2 Години

Нова тема   Відповісти