Завантажити та скачати торренти українською


Механічний апельсин / A Clockwork Orange (1971) 1080p Ukr/Eng | Sub Eng

Нові коментарі

Нова тема   Відповісти
Автор Повідомлення
ratbol 
Модератор HD


З нами з: 03.02.09
Востаннє: 09.12.16
Повідомлень: 1088

2012-08-26 23:05  
Механічний апельсин / A Clockwork Orange (1971) 1080p Ukr/Eng | Sub Eng

Механічний апельсин / A Clockwork Orange (1971) 1080p Ukr/Eng | Sub Eng


Жанр: драма
Країна: Велика Британія



Кіностудія / кінокомпанія: Warner Brothers
Режисер: Стенлі Кубрик
Актори: Малкольм МакДавелл, Варрен Кларк, Майкл Бейтс, Джеймс Маркус, Майкл Тарн, Патрік Меджі та інші.

Сюжет:
Режисер знайомить глядача із головним героєм – підлітком на ім’я Алекс, котрий, як на свій вік, є особою агресивною – ґвалтує жінок, грабує будинки та здійснює акти «ультранасилля». У цьому йому допомагає компанія друзів – дивакуватих хлопців, для яких Алекс є беззаперечним лідером. Поруч із цим у свідомості Алекса живе альтер-еґо – підліток захоплюється класичною музикою, зокрема 9-ою симфонією Бетховена.

Одного разу, здійснивши вбивство, Алекс потрапляє до тюрми. Будучи ув’язненим, Алекс починає перейматись власним психічним станом – тюремні пута стають для нього нестерпними. Саме тому хлопець погоджується взяти участь у медичних експериментах, які люб’язно пропонує уряд. Лікування полягає у тому, що медики намагаються виробити у людині (злочинці зокрема) умовний рефлекс на секс та насилля. Таким чином, лише при думці про секс чи насилля, Алекса вражав потужної сили приступ нудоти. Ті ж відчуття хлопець переживав, коли чув улюблену 9-у симфонію Бетховена. Вікіпедія


Тривалість: 02:16:36
Якість:
Відео:
кодек:
розмір кадру: 1 786 х 1080
бітрейт: 8 533 кб/с

Аудіо # 1:
мова: українська
переклад: багатоголосий закадровий | Цікава ідея
кодек: 5.1
бітрейт: 1536 кб/с

Аудіо # 2:
мова: англійська
переклад: оригінал
кодек: 5.1
бітрейт: 1536 кб/с

Аудіо # 1:
мова: англійська
переклад: коментарі
кодек: 2.0
бітрейт: 192 кб/с

Джерело озвучення:
ТО "Цікава ідея" на замовлення Hurtom.com

Субтитри:
мова: англійська
тип: програмні (м'які)
формат: *.srt

Оригінальні розділи:
Збережено

Інформація про українську доріжку
Українську озвучку створено студією ТО "Цікава ідея" на замовлення Hurtom.com в рамках проекту "Хочеш кіно українською? Замовляй!"

Детальніше про проект.


Дякуємо користувачам, що фінансово допомогли проекту:
vifilo, yuvial, Zoryan71, bookovina, sunshadow, novns, Анонім, TriVVet, Qualcuno, ValicV, makata, painz, Шейнога Станіслав, Відьмачечок, sl.adamenko, Ihorco, vladyk, vitbol, k1k1k1, oleh_oleh, mikrom, roman.paint, chuba001, merlin_zaraza, daedan, zeleneserce, Yareban, BrMM, maksimka9112007, bsdkom, avatararij, Thaddeus, Slavko Uzhhorod, OLENKA1980, yarik_ratnik, brizident, parovoz, glogus, indiana7, rakab, grim86, bondar, ratiborsky, hello_world, Klymkiv_a, Mitrukhin, govjiogter, loiknazar, Анонім, zanevsky, КОЗАК СЕРГІЙ, "Мерзотники", Thaddeus, newvolya, Макрос, Loki, romm77, maxus.bender, Arhont, Kalynka Rosso, molotokk, Sn00pY_UA, busbus, гілка, Qualcuno, Rost3, анонім, panernest, tyma1, Vasill, орестт, vkozak77, sanyatyoma, zinkognito, fishMD, olfed111, ThugRx, serzholino16x, Yarrm, zolotoy, Volodymyr Shpikulov, partos, MisterR, lan44er, StiN, pooh007, gitaralover, Dmytro D, Avis, ivasykvv, TarasTaras, Bzick, Romdoc, kopycom, ExFinder, Roman N, B_Volodumur, alexandr_b, thefir, Dimka, somnambula, Оксана Середа, Роман Бліхарський, MarianB, sania2011, Makovej, ORFEO, Dim-ON, demydd, igor911, Golota, ppk21, MutuLI, Анонім, Джерх, Гривник, Chaka_bum, elwolf, virtus8hur, Sergo_k_s_v, NemoInFire, willian
Також дякуємо користувачам, що надали фінансову допомогу, але побажали бути анонімними.
Дакуємо трекеру Torrents.net.ua за підтримку проекту.

Детальніше про збір грошей.
MediaInfo
Код:
General
Unique ID                        : 221023753973264438376170395344269740766 (0xA647A06A27B69001A3CB0F5A7F340ADE)
Complete name                    : E:\MOVIES\movie releases\A Clockwork Orange (1971)\A Clockwork Orange (1971) [Ukr, Eng, Com. Sub - Eng] 1080p [Hurtom].mkv
Format                           : Matroska
Format version                   : Version 2
File size                        : 11.2 GiB
Duration                         : 2h 16mn
Overall bit rate                 : 11.7 Mbps
Encoded date                     : UTC 2012-08-24 16:55:06
Writing application              : mkvmerge v5.6.0 ('Kenya Kane') built on May 27 2012 16:44:04
Writing library                  : libebml v1.2.3 + libmatroska v1.3.0
Attachment                       : Yes / Yes

Video
ID                               : 1
Format                           : AVC
Format/Info                      : Advanced Video Codec
Format profile                   : [email protected]
Format settings, CABAC           : Yes
Format settings, ReFrames        : 4 frames
Codec ID                         : V_MPEG4/ISO/AVC
Duration                         : 2h 16mn
Bit rate                         : 8 533 Kbps
Width                            : 1 786 pixels
Height                           : 1 080 pixels
Display aspect ratio             : 1.654
Frame rate                       : 23.976 fps
Color space                      : YUV
Chroma subsampling               : 4:2:0
Bit depth                        : 8 bits
Scan type                        : Progressive
Bits/(Pixel*Frame)               : 0.185
Stream size                      : 7.92 GiB (71%)
Title                            : Ріп від HDH
Writing library                  : core 125 r2200 999b753
Encoding settings                : cabac=1 / ref=4 / deblock=1:-3:-3 / analyse=0x3:0x133 / me=tesa / subme=11 / psy=1 / psy_rd=1.00:0.15 / mixed_ref=1 / me_range=24 / chroma_me=1 / trellis=2 / 8x8dct=1 / cqm=0 / deadzone=21,11 / fast_pskip=0 / chroma_qp_offset=-3 / threads=12 / lookahead_threads=2 / sliced_threads=0 / nr=0 / decimate=1 / interlaced=0 / bluray_compat=0 / constrained_intra=0 / bframes=7 / b_pyramid=2 / b_adapt=2 / b_bias=0 / direct=3 / weightb=1 / open_gop=0 / weightp=2 / keyint=240 / keyint_min=23 / scenecut=40 / intra_refresh=0 / rc_lookahead=60 / rc=2pass / mbtree=1 / bitrate=8533 / ratetol=1.0 / qcomp=0.60 / qpmin=0 / qpmax=69 / qpstep=4 / cplxblur=20.0 / qblur=0.5 / ip_ratio=1.40 / aq=1:1.00
Language                         : English
Default                          : Yes
Forced                           : No

Audio #1
ID                               : 2
Format                           :
Format/Info                      : Digital Theater Systems
Codec ID                         : A_DTS
Duration                         : 2h 16mn
Bit rate mode                    : Constant
Bit rate                         : 1 510 Kbps
Channel(s)                       : 6 channels
Channel positions                : Front: L C R, Side: L R, LFE
Sampling rate                    : 48.0 KHz
Bit depth                        : 24 bits
Compression mode                 : Lossy
Stream size                      : 1.44 GiB (13%)
Title                            : 5.1 [1536 Kbps] — багатоголосий закадровий, Цікава Ідея
Language                         : Ukrainian
Default                          : Yes
Forced                           : No

Audio #2
ID                               : 3
Format                           :
Format/Info                      : Digital Theater Systems
Codec ID                         : A_DTS
Duration                         : 2h 16mn
Bit rate mode                    : Constant
Bit rate                         : 1 510 Kbps
Channel(s)                       : 6 channels
Channel positions                : Front: L C R, Side: L R, LFE
Sampling rate                    : 48.0 KHz
Bit depth                        : 16 bits
Compression mode                 : Lossy
Stream size                      : 1.44 GiB (13%)
Title                            : 5.1 [1536 Kbps] — оригінал
Language                         : English
Default                          : No
Forced                           : No

Audio #3
ID                               : 4
Format                           : AC-3
Format/Info                      : Audio Coding 3
Format profile                   : Dolby Digital
Mode extension                   : CM (complete main)
Codec ID                         : A_AC3
Duration                         : 2h 16mn
Bit rate mode                    : Constant
Bit rate                         : 192 Kbps
Channel(s)                       : 2 channels
Channel positions                : Front: L R
Sampling rate                    : 48.0 KHz
Bit depth                        : 16 bits
Compression mode                 : Lossy
Stream size                      : 188 MiB (2%)
Title                            : 2.0 [192 Kbps] — коментарі
Language                         : English
Default                          : No
Forced                           : No

Text
ID                               : 5
Format                           : UTF-8
Codec ID                         : S_TEXT/UTF8
Codec ID/Info                    : UTF-8 Plain Text
Language                         : English
Default                          : No
Forced                           : No

Menu
00:00:00.000                     : en:Chapter 1
00:02:17.053                     : en:Chapter 2
00:04:28.017                     : en:Chapter 3
00:07:32.368                     : en:Chapter 4
00:08:58.454                     : en:Chapter 5
00:13:21.717                     : en:Chapter 6
00:16:46.755                     : en:Chapter 7
00:20:02.451                     : en:Chapter 8
00:25:47.796                     : en:Chapter 9
00:28:05.308                     : en:Chapter 10
00:29:04.200                     : en:Chapter 11
00:33:19.247                     : en:Chapter 12
00:36:30.605                     : en:Chapter 13
00:43:32.192                     : en:Chapter 14
00:47:21.088                     : en:Chapter 15
00:52:57.048                     : en:Chapter 16
00:55:30.452                     : en:Chapter 17
01:01:19.759                     : en:Chapter 18
01:07:20.786                     : en:Chapter 19
01:11:13.852                     : en:Chapter 20
01:15:33.946                     : en:Chapter 21
01:19:16.376                     : en:Chapter 22
01:23:59.242                     : en:Chapter 23
01:26:18.882                     : en:Chapter 24
01:28:09.200                     : en:Chapter 25
01:31:53.591                     : en:Chapter 26
01:35:55.374                     : en:Chapter 27
01:39:30.923                     : en:Chapter 28
01:42:23.178                     : en:Chapter 29
01:49:38.863                     : en:Chapter 30
02:01:09.262                     : en:Chapter 31
02:04:03.185                     : en:Chapter 32
02:07:37.566                     : en:Chapter 33
02:12:34.029                     : en:Chapter 34
02:13:57.029                     : en:Chapter 35
log
Код:
-[NoImage] [info]: using SAR=1/1
-[NoImage] [info]: using cpu capabilities: MMX2 SSE2Fast SSSE3 FastShuffle SSE4.2 AVX
-[NoImage] [info]: profile High, level 4.1
-[NoImage]
-[NoImage] [info]: frame I:1107  Avg QP:15.40  size:209062
-[NoImage] [info]: frame P:38618 Avg QP:17.50  size: 85840
-[NoImage] [info]: frame B:156798 Avg QP:19.69  size: 33138
-[NoImage] [info]: consecutive B-frames:  1.1%  1.0%  1.8% 26.7%  7.4% 50.7%  1.2% 10.1%
-[NoImage] [info]: mb I  I16..4:  6.8% 79.2% 14.0%
-[NoImage] [info]: mb P  I16..4:  1.8% 19.1%  1.0%  P16..4: 30.5% 35.2%  8.7%  2.3%  0.1%    skip: 1.2%
-[NoImage] [info]: mb B  I16..4:  0.2%  2.1%  0.1%  B16..8: 35.4% 18.2%  2.0%  direct:13.4%  skip:28.6%  L0:44.2% L1:41.2% BI:14.6%
-[NoImage] [info]: 8x8 transform intra:86.6% inter:51.3%
-[NoImage] [info]: direct mvs  spatial:99.5% temporal:0.5%
-[NoImage] [info]: coded y,uvDC,uvAC intra: 87.2% 89.2% 68.8% inter: 34.8% 37.1% 8.2%
-[NoImage] [info]: i16 v,h,dc,p: 22% 15%  9% 54%
-[NoImage] [info]: i8 v,h,dc,ddl,ddr,vr,hd,vl,hu: 11% 10% 10%  8% 10% 10% 12% 12% 17%
-[NoImage] [info]: i4 v,h,dc,ddl,ddr,vr,hd,vl,hu: 15% 12% 10%  7% 12% 12% 12%  9% 12%
-[NoImage] [info]: i8c dc,h,v,p: 43% 27% 17% 14%
-[NoImage] [info]: Weighted P-Frames: Y:5.1% UV:1.4%
-[NoImage] [info]: ref P L0: 51.3% 10.4% 26.3% 11.5%  0.5%  0.0%
-[NoImage] [info]: ref B L0: 84.7% 12.0%  3.4%
-[NoImage] [info]: ref B L1: 93.3%  6.7%
-[NoImage] [info]: kb/s:8532.64
-[NoImage] encoded 196523 frames, 2.58 fps, 8532.64 kb/s
Скріншоти
Source vs Encode






УВАГА!
Фільм не рекомендовано для перегляду особам до 18 років.



Робота над релізом:
thefir — українізація постера;
ratbol — відеоріп.


Реліз-група &


Авторський реліз (завантажувати можна без реєстрації)
 Трекер:    Зареєстрований   

Завантажити / скачати фільм українською



відео для новачків



 Зареєстрований:   2012-08-26 23:05
 Розмір:   11.21 GB 
 Оцінка фільму:   9.1/10 (Голосів: 12)
   
Ваш часовий пояс: GMT + 2 Години

Нова тема   Відповісти