Завантажити та скачати торренти українською


Диктатор / The Dictator (2012) AVC Ukr | Sub Ukr/Eng

Нові коментарі

Нова тема   Відповісти
Автор Повідомлення
Anonymous 







2012-08-26 17:27  
Диктатор / The Dictator (2012) AVC Ukr | Sub Ukr/Eng


Жанр: комедія
Країна: США



Кіностудія / кінокомпанія: Four by Two Films
Режисер: Ларрі Чарльз
Актори: Саша Барон Коен, Ганна Феріс, Бен Кінгслі, Джон С. Рейллі, Меган Фокс, Аасіф Мандві.

Сюжет:
Героїчна історія диктатора, який ризикує своїм життям, щоб ні в якому разі не допустити демократію в свою настільки любовно гноблену країну.


Тривалість: 01:21:37
Відео:
кодек:
розмір кадру: 1056x440
бітрейт: 2063 кб/с

Аудіо:
мова: українська
переклад: професійний дубльований
кодек: 5.1
бітрейт: 448 кб/с

Джерело озвучення:


Субтитри:
мова: українська
тип: програмні (м'які)
формат: *.srt
Джерело субтитрів:

Субтитри:
мова: англійська
тип: програмні (м'які)
формат: *.srt
Скріншоти:


MediaInfo
General
Unique ID : 100560917042576217843466645082809749734 (0x4BA75400C4DC6564AC436A6C78FAD0E6)
Complete name : /media/media/The Dictator (2012) [ukr] sub[ukr,eng] AVC [Hurtom].mkv
Format : Matroska
Format version : Version 2
File size : 1.46 GiB
Duration : 1h 23mn
Overall bit rate : 2 513 Kbps
Movie name : The Dictator (2012) AVC
Encoded date : UTC 2012-08-26 18:11:17
Writing application : mkvmerge v5.7.0 ('The Whirlwind') built on Jul 8 2012 19:19:57
Writing library : libebml v1.2.3 + libmatroska v1.3.0

Video
ID : 1
Format : AVC
Format/Info : Advanced Video Codec
Format profile : [email protected]
Format settings, CABAC : Yes
Format settings, ReFrames : 9 frames
Codec ID : V_MPEG4/ISO/AVC
Duration : 1h 23mn
Bit rate : 2 063 Kbps
Width : 1 056 pixels
Height : 440 pixels
Display aspect ratio : 2.40:1
Original display aspect ratio : 2.40:1
Frame rate mode : Variable
Frame rate : 23.976 fps
Color space : YUV
Chroma subsampling : 4:2:0
Bit depth : 8 bits
Scan type : Progressive
Bits/(Pixel*Frame) : 0.185
Stream size : 1.17 GiB (80%)
Title : The Dictator (2012) AVC
Writing library : core 116 r2019M 9cc407d
Encoding settings : cabac=1 / ref=10 / deblock=1:-2:-2 / analyse=0x3:0x133 / me=umh / subme=10 / psy=1 / psy_rd=1.00:0.00 / mixed_ref=1 / me_range=32 / chroma_me=1 / trellis=2 / 8x8dct=1 / cqm=0 / deadzone=21,11 / fast_pskip=0 / chroma_qp_offset=-2 / threads=8 / sliced_threads=0 / nr=0 / decimate=1 / interlaced=0 / bluray_compat=0 / constrained_intra=0 / bframes=11 / b_pyramid=1 / b_adapt=2 / b_bias=0 / direct=3 / weightb=1 / open_gop=0 / weightp=2 / keyint=240 / keyint_min=23 / scenecut=40 / intra_refresh=0 / rc_lookahead=100 / rc=2pass / mbtree=1 / bitrate=2063 / ratetol=1.0 / qcomp=0.70 / qpmin=10 / qpmax=51 / qpstep=4 / cplxblur=20.0 / qblur=0.5 / vbv_maxrate=20000 / vbv_bufsize=20000 / nal_hrd=none / ip_ratio=1.35 / aq=1:1.00
Language : English
Default : Yes
Forced : No

Audio
ID : 2
Format : AC-3
Format/Info : Audio Coding 3
Mode extension : CM (complete main)
Codec ID : A_AC3
Duration : 1h 23mn
Bit rate mode : Constant
Bit rate : 448 Kbps
Channel(s) : 6 channels
Channel positions : Front: L C R, Side: L R, LFE
Sampling rate : 48.0 KHz
Bit depth : 16 bits
Compression mode : Lossy
Stream size : 267 MiB (18%)
Title : 5.1 @ 448 kbps
Language : Ukrainian
Default : Yes
Forced : Yes

Text #1
ID : 3
Format : UTF-8
Codec ID : S_TEXT/UTF8
Codec ID/Info : UTF-8 Plain Text
Language : Ukrainian
Default : No
Forced : No

Text #2
ID : 4
Format : UTF-8
Codec ID : S_TEXT/UTF8
Codec ID/Info : UTF-8 Plain Text
Language : English
Default : No
Forced : No
Джерело:
Особиста оцінка: 10 - без зайвих вагань рекомендую всім!


 Трекер:    Зареєстрований   

Завантажити / скачати фільм українською



відео для новачків



 Зареєстрований:   2012-08-26 20:39
 Розмір:   1.46 GB 
 Оцінка фільму:   8.3/10 (Голосів: 60)
   
Інші релізи
   Диктатор / The Dictator (2012) Ukr/Eng | Sub Ukr/Eng karvai0  6 / 3   1.71 GB   2012-11-22 15:53 
   Диктатор / The Dictator (2012) 720p Ukr/Eng | Sub Ukr/Eng AngryBirdsUA  3 / 1   6.23 GB   2012-08-26 18:16 
bot 
робот


З нами з: 30.09.07
Востаннє: 26.05.05
Повідомлень: 15968

2012-08-26 17:27  
Тему перенесено з Фільми до форуму Анонси релізів від Відео Гуртом


Vasua95

karvai0 
Відео Гуртом - запис з ТБ
Відео Гуртом - запис з ТБ


З нами з: 18.01.10
Востаннє: 09.09.16
Повідомлень: 3686

2012-08-26 17:28  
gods 
Частий відвідувач


З нами з: 04.01.12
Востаннє: 25.06.16
Повідомлень: 29

2012-08-26 18:14  
коли реліз?
The_Marlboro 
Відео Гуртом - субтитрування
Відео Гуртом - субтитрування


З нами з: 23.05.10
Востаннє: 02.12.16
Повідомлень: 2854

2012-08-26 18:23  
Vasua95 написано:
Ріп буде розміром 2,18

Якого біса при такій то тривалості?

karvai0 
Відео Гуртом - запис з ТБ
Відео Гуртом - запис з ТБ


З нами з: 18.01.10
Востаннє: 09.09.16
Повідомлень: 3686

2012-08-26 18:32  
TheMarlboro
бітрейт буде біля 3000 і це якщо ще анг 448кб/с
не варто таке робити

НТН 
Відео Гуртом - фільмокрай
Відео Гуртом - фільмокрай


З нами з: 25.12.11
Востаннє: 10.11.16
Повідомлень: 2001

2012-08-26 19:12  
ВАВ вже ліцензія Гарна якість відео
bot 
робот


З нами з: 30.09.07
Востаннє: 26.05.05
Повідомлень: 15968

2012-08-26 20:38  
Тему перенесено з Анонси релізів від Відео Гуртом до форуму Фільми


Vasua95

maddd 
Поважний учасник


З нами з: 25.03.09
Востаннє: 06.11.16
Повідомлень: 236

2012-08-26 20:54  
цей фільм такий Алладін (хто дивився - той пойме)
have got 
VIP


З нами з: 11.07.12
Востаннє: 13.07.16
Повідомлень: 306

2012-08-26 22:00  
чекав, дочекався Wide grin дякую
АндрійСхідний 
Новенький


З нами з: 05.04.12
Востаннє: 03.12.16
Повідомлень: 22

2012-08-26 22:50  
Гарна комедія, бачив у кінотеатрі. Раджу подивитись
fooks 
Поважний учасник


З нами з: 17.10.11
Востаннє: 30.11.16
Повідомлень: 239

2012-08-27 10:09  
Цитата:
цей фільм такий Алладін

ага)))
просто Алладін!

Jack_Daniels 
VIP


З нами з: 30.07.10
Востаннє: 02.12.16
Повідомлень: 297

2012-08-27 17:46  
Ріп дивний... телик дав ради тільки відтворювати... перемотування уже недоступне :_(
Yaroslavovy4 
Свій


З нами з: 25.03.12
Востаннє: 23.11.16
Повідомлень: 96

2012-08-27 21:10  
фільм гавно рідкісне............
shutbanderas 
Поважний учасник


З нами з: 09.04.09
Востаннє: 02.12.16
Повідомлень: 227

2012-08-27 21:53  
Додивився до моменту коли вони їхали на гелікоптері і увімкнув субтитри - набагато смішніше дивитись коли чути їх з кумедним акцентом мову і порівнювати з субтитрами....
Згідний що фільм не шедевр, але настрій підніме......
P.S. Якщо хтось позбавлений почуття гумору - значить було за що......Happy

vov4uk69 
Новенький


З нами з: 16.08.10
Востаннє: 29.11.16
Повідомлень: 8

2012-09-03 22:10  
Кому сподовася Борат, думаю тому сподобається і цей фільм.
nissal 
Свій


З нами з: 14.04.11
Востаннє: 21.12.14
Повідомлень: 78

2012-09-06 22:23  
картинка дуже якісна. позитивно в цілому Happy можна знайти філософію й паралелі з реаліями. і казармений гумор. раджу )
harmonic 
Частий відвідувач


З нами з: 01.01.11
Востаннє: 23.11.16
Повідомлень: 30

2013-01-27 12:39  
Фільм з примітивним юмором...
Є кумедні моменти, але загалом він не вартий уваги...
Дивився його тому, що зацікавив трейлер.

kompgeniy 
Новенький


З нами з: 18.04.15
Востаннє: 29.11.16
Повідомлень: 17

2015-11-16 02:52  
є крім Диктатора і Зохана комедії, в яких на стільки прекрасніше звучить українська ніж англійська?

Додано через 2 хвилини 56 секунд:

І взагалі краще ніж усі мови

Ваш часовий пояс: GMT + 2 Години

Нова тема   Відповісти