Завантажити та скачати торренти українською


Ніч страху / Fright Night (1985) Remux Ukr/Eng | Sub Eng

Нові коментарі

Нова тема   Відповісти
Останній раз роздавалося leroykendall (2016-11-20)
Автор Повідомлення
urij546724 
Відео Гуртом - фільмокрай
Відео Гуртом - фільмокрай


З нами з: 16.03.10
Востаннє: 06.12.16
Повідомлень: 5222

2012-08-24 19:01  
Ніч страху / Fright Night (1985) Remux Ukr/Eng | Sub Eng

Альтернативні постери:



Слогани:
«If you love being scared, it'll be the night of your life.»
«Якщо ви любите боятися, це буде ніч вашого життя.»


Жанр: комедія, жахи, трилер
Країна: США



Кіностудія / кінокомпанія: Columbia Pictures Corporation, Delphi IV Productions, Vistar Films
Режисер: Том Холланд (Tom Holland)
Актори: Кріс Сарандон (Chris Sarandon), Вільям Регсдейл (William Ragsdale), Аманда Бірз (Amanda Bearse), Родді МакДауелл (Roddy McDowall), Стівен Джеффріс (Stephen Geoffreys), Джонатан Старк (Jonathan Stark), Дороті Філдінг (Dorothy Fielding)...
Усі актори:
Кріс Сарандон (Chris Sarandon), Вільям Регсдейл (William Ragsdale), Аманда Бірз (Amanda Bearse), Родді МакДауелл (Roddy McDowall), Стівен Джеффріс (Stephen Geoffreys), Джонатан Старк (Jonathan Stark), Дороті Філдінг (Dorothy Fielding), Арт Еванс (Art Evans), Стюарт Штерн (Stewart Stern), Нік Севадж (Nick Savage), Ерні Холмс (Ernie Holmes), Хайді Соренсон (Heidi Sorenson), Ірина Ірвін (Irina Irvine), Боб Корфф (Bob Corff), Памела Браун (Pamela Brown), Кріс Хендрі (Chris Hendrie), Принц Хьюз (Prince Hughes), Лен Хефнер (Lene Hefner), Джой Мішель Ферро (Joy Michelle Moore)
Сюжет:
Юний прихильник жахів, Чарлі, виявляє, що його сусід - вампір. Гірше того: сусідові не подобається, що хтось знає його таємницю, тому життя Чарлі під загрозою. Повністю зневірившись, Чарлі звертається за допомогою до Пітера Вінсента, ведучого програми «Ніч страху», який нібито знає про вампірів все ...


Бюджет: 9 000 000 доларів
Збори в США: 24 922 237 доларів
Назва фільму у інших країнах
La hora del espanto
Аргентина / Мексика


Νύχτα Τρόμου
Греція


A Hora do Espanto
Бразилія


A Noite do Espanto
Португалія


Ammazzavampiri
Італія


Die rabenschwarze Nacht / Fright Night - Die rabenschwarze Nacht
Західна Німеччина


Dracula Lovers
Індонезія (нова назва) (Англійська назва)


Frászkarika
Угорщина


Gysertimen
Данія


Kauhun yö
Фінляндія


Komsum Bir Vampir
Туреччина (Назва на ТБ)


La noche del espanto
Венесуела


Noć strave
Сербія


Noche de miedo
Іспанія


Nyhta tromou
Греція


Skräcknatten
Швеція


Vampire, vous avez dit vampire?
Франція


Ночь страха
Росія
Нагороди і номінації
Сатурн, 1986 рік
Переможець (1):
1) Кращий актор другого плану (Родді МакДауелл)
2) Кращий сценарій
3) Кращий фільм жахів

Номінації (2):
1) Кращий актор (Кріс Сарандон)
2) Кращий режисер (Том Холланд)
3) Кращі спецефекти
Media info
General
Unique ID : 226647824337126227170342809750985207960 (0xAA82C87DF7A3161280DF4AEF2F4B7098)
Complete name : D:\Fright Night (1985) [ukr.K1_eng_DTS_5.1] Remux [Hurtom] by urij546724.mkv
Format : Matroska
Format version : Version 2
File size : 20.2 GiB
Duration : 1h 46mn
Overall bit rate mode : Variable
Overall bit rate : 27.2 Mbps
Movie name : Fright Night (1985) [ukr.K1_eng_DTS_5.1] Remux [Hurtom] by urij546724
Encoded date : UTC 2012-08-24 16:29:44
Writing application : mkvmerge v2.9.7 ('Tenderness') built on Jul 1 2009 18:43:35
Writing library : libebml v0.7.7 + libmatroska v0.8.1

Video
ID : 1
Format : AVC
Format/Info : Advanced Video Codec
Format profile : [email protected]
Format settings, CABAC : Yes
Format settings, ReFrames : 4 frames
Format settings, GOP : M=3, N=12
Codec ID : V_MPEG4/ISO/AVC
Duration : 1h 46mn
Bit rate mode : Variable
Bit rate : 23.6 Mbps
Maximum bit rate : 38.0 Mbps
Width : 1 920 pixels
Height : 1 080 pixels
Display aspect ratio : 16:9
Frame rate : 23.976 fps
Color space : YUV
Chroma subsampling : 4:2:0
Bit depth : 8 bits
Scan type : Progressive
Bits/(Pixel*Frame) : 0.475
Stream size : 17.6 GiB (87%)
Title : Fright Night (1985) [ukr.K1_eng_DTS_5.1] Remux [Hurtom] by urij546724
Language : Ukrainian
Default : Yes
Forced : No

Audio #1
ID : 2
Format :
Format/Info : Digital Theater Systems
Codec ID : A_DTS
Duration : 1h 46mn
Bit rate mode : Constant
Bit rate : 1 510 Kbps
Channel(s) : 6 channels
Channel positions : Front: L C R, Side: L R, LFE
Sampling rate : 48.0 KHz
Bit depth : 24 bits
Compression mode : Lossy
Stream size : 1.12 GiB (6%)
Title : Українська доріжка
Language : Ukrainian
Default : Yes
Forced : No

Audio #2
ID : 3
Format :
Format/Info : Digital Theater Systems
Format profile : MA / Core
Codec ID : A_DTS
Duration : 1h 46mn
Bit rate mode : Variable
Bit rate : 1 561 Kbps / 1 510 Kbps
Channel(s) : 6 channels
Channel positions : Front: L C R, Side: L R, LFE
Sampling rate : 48.0 KHz
Bit depth : 24 bits
Compression mode : Lossless / Lossy
Title : Англійська доріжка
Language : English
Default : No
Forced : No

Text
ID : 4
Format : UTF-8
Codec ID : S_TEXT/UTF8
Codec ID/Info : UTF-8 Plain Text
Title : Англійські субтитри
Language : English
Default : Yes
Forced : No

Menu
00:00:00.000 : en:00:00:00.000
00:10:00.600 : en:00:10:00.600
00:20:00.658 : en:00:20:00.658
00:30:01.383 : en:00:30:01.383
00:40:02.609 : en:00:40:02.609
00:50:02.416 : en:00:50:02.416
01:00:03.767 : en:01:00:03.767
01:10:04.117 : en:01:10:04.117
01:20:04.383 : en:01:20:04.383
01:30:04.733 : en:01:30:04.733
01:40:06.209 : en:01:40:06.209
Тривалість: 01:46:25
Якість: Remux
Відео:
кодек:
розмір кадру: 1920 х 1080
бітрейт: ~ 23.6 мб/с
частота кадрів: 23.976 к/с (fps)

Аудіо #1:
мова: українська
переклад: багатоголосий закадровий
кодек: 5.1
бітрейт: 1510 кб/с
запис з каналу :

Аудіо #2:
мова: англійська
переклад: оригінал
кодек: -HD 5.1
бітрейт: 3794 кб/с

Субтитри #2:
мова: англійська
тип: програмні (м'які)
формат: *.srt

Скріншоти:





Трейлери:

Семпл
Джерело 1_________Джерело 2_________Джерело 3_________Джерело 4_________Джерело 5_________Джерело 6_________Джерело 7
У випадку, якщо з усіх джерел семпл видалять, прохання повідомити мені у ПРИВАТ


Подяка:

1. Пані SweetN за запис звуку з ТБ.


Реліз створено: &

Особиста оцінка: Дивився давно, тоді сподобалось.

Реліз зберігати не буду, видалю щойно буде потрібне вільне місце.


Золотий реліз (завантажене не впливає на рейтинг)
 Трекер:    Зареєстрований   

Завантажити / скачати фільм українською



відео для новачків



 Зареєстрований:   2012-08-24 20:35
 Розмір:   20.24 GB 
 Оцінка фільму:   5.5/10 (Голосів: 6)
 Прохання залишати коментарі і не тікати з роздачі.
   
Інші релізи
   Ніч страху / Fright Night (1985) Ukr/Eng urij546724  2 / 0   2.01 GB   2012-08-26 14:21 
Ваш часовий пояс: GMT + 2 Години

Нова тема   Відповісти