Завантажити та скачати торренти українською


Фріда / Frida (2002) 720p Ukr/Eng | Sub Ukr/Eng

Нові коментарі

Нова тема   Відповісти
Автор Повідомлення
chaoscor 
Свій


З нами з: 17.10.10
Востаннє: 03.12.16
Повідомлень: 73

2012-08-24 18:11  
Фріда / Frida (2002) 720p Ukr/Eng | Sub Ukr/Eng

Фріда / Frida (2002) 720p Ukr/Eng | Sub Ukr/Eng


Жанр: драма, мелодрама, біографічний
Країна: США, Канада, Мексика



Режисер: Джулі Теймор
Актори: Сальма Хаєк, Альфред Моліна, Валерія Голіно, Ешлі Джад, Антоніо Бандерас, Едвард Нортон, Сафрон Бероуз, Джефрі Раш, Міа Маестро, Амелія Запата, Алехандро Усіглі, Діего Луна

Сюжет:
Фріді було 20 років, коли вона вийшла заміж за найзнаменитішого художника Мексики Дієго Ріверу, немолодого, багатого і розпусного. Пройде всього кілька років і вона завоює Париж, а про його скандал з Рокфеллером напишуть у всіх американських газетах!

Їх численні любовні романи не перешкодять їм підкорити світ, а ось чи зможуть вони приборкати один одного?! ..


Тривалість: 02:02:56
Якість:
Відео:
кодек:
розмір кадру: 1280 х 694
бітрейт: 6347 кб/с

Аудіо # 1:
мова: українська
переклад: багатоголосий закадровий
кодек: MP3 2.0
бітрейт: 320 кб/с
Джерело озвучення:

взято з релізу igrik09

Аудіо # 2:
мова: англійська
переклад: оригінал
кодек: 5.1
бітрейт: 1510 кб/с

Аудіо # 3:
мова: англійська
переклад: коментарі
кодек: 2.0
бітрейт: 320 кб/с

Субтитри # 1:
мова: українська
тип: програмні (м'які)
формат: *.srt
переклад: chaoscor

Субтитри # 2:
мова: англійська
тип: програмні (м'які)
формат: *.srt

Субтитри # 3:
мова: англійська (SDH)
тип: програмні (м'які)
формат: *.srt
MediaInfo
N:\проекти\Frida (2002) 720p UkrEng Sub UkrEng .mkv
General
Complete name : N:\проекти\Frida (2002) 720p UkrEng Sub UkrEng .mkv
Format : Matroska
File size : 7.28 GiB
Duration : 2h 2mn
Overall bit rate : 8 483 Kbps
Movie name : "Frida.2002.720p.BluRay.DD51.-DON"
Encoded date : UTC 2012-08-24 08:53:51
Writing application : mkvmerge v5.2.1 ('A Far Off Place') built on Jan 2 2012 23:21:10
Writing library : libebml v1.2.3 + libmatroska v1.3.0
Video #1
ID : 1
Format : AVC
Format/Info : Advanced Video Codec
Format profile : [email protected]
Format settings, CABAC : Yes
Format settings, ReFrames : 9 frames
Muxing mode : Container [email protected]
Codec ID : V_MPEG4/ISO/AVC
Duration : 2h 2mn
Bit rate : 6 347 Kbps
Width : 1 280 pixels
Height : 694 pixels
Display aspect ratio : 16:9
Frame rate : 23.976 fps
Color space : YUV
Chroma subsampling : 4:2:0
Bit depth : 8 bits
Scan type : Progressive
Bits/(Pixel*Frame) : 0.298
Stream size : 5.29 GiB (73%)
Title : Frida 2002 720p BluRay DD51 -DON
Writing library : core 120 r2120kMod 0c7dab9
Encoding settings : cabac=1 / ref=9 / deblock=1:-3:-3 / analyse=0x3:0x133 / me=tesa / subme=10 / psy=1 / fade_compensate=0.00 / psy_rd=1.15:0.10 / mixed_ref=1 / me_range=24 / chroma_me=1 / trellis=2 / 8x8dct=1 / cqm=0 / deadzone=21,11 / fast_pskip=0 / chroma_qp_offset=-3 / threads=6 / sliced_threads=0 / nr=0 / decimate=1 / interlaced=0 / bluray_compat=0 / constrained_intra=0 / bframes=9 / b_pyramid=2 / b_adapt=2 / b_bias=0 / direct=3 / weightb=1 / open_gop=0 / weightp=2 / keyint=250 / keyint_min=23 / scenecut=40 / intra_refresh=0 / rc_lookahead=150 / rc=2pass / mbtree=1 / bitrate=6347 / ratetol=1.0 / qcomp=0.60 / qpmin=0 / qpmax=69 / qpstep=4 / cplxblur=20.0 / qblur=0.5 / vbv_maxrate=50000 / vbv_bufsize=62500 / nal_hrd=none / ip_ratio=1.40 / aq=3:0.90
Language : English
Audio #2
ID : 2
Format : MPEG Audio
Format version : Version 1
Format profile : Layer 3
Mode : Joint stereo
Mode extension : MS Stereo
Codec ID : A_MPEG/L3
Codec ID/Hint : MP3
Duration : 2h 2mn
Bit rate mode : Constant
Bit rate : 320 Kbps
Channel(s) : 2 channels
Sampling rate : 44.1 KHz
Stream size : 281 MiB (4%)
Writing library : LAME3.96.1
Language : Ukrainian
Audio #3
ID : 3
Format :
Format/Info : Digital Theater Systems
Codec ID : A_DTS
Duration : 2h 2mn
Bit rate mode : Constant
Bit rate : 1 510 Kbps
Channel(s) : 6 channels
Channel positions : Front: L C R, Side: L R, LFE
Sampling rate : 48.0 KHz
Bit depth : 24 bits
Stream size : 1.30 GiB (18%)
Title : 5.1 @ 1536 kbps
Language : English
Audio #4
ID : 4
Format :
Format/Info : Digital Theater Systems
Codec ID : A_DTS
Duration : 2h 2mn
Bit rate mode : Constant
Bit rate : 320 Kbps
Channel(s) : 2 channels
Channel positions : Front: L R
Sampling rate : 48.0 KHz
Bit depth : 16 bits
Stream size : 281 MiB (4%)
Title : Commentary with Director Julie Taymor
Language : English
Text #5
ID : 5
Format : UTF-8
Codec ID : S_TEXT/UTF8
Codec ID/Info : UTF-8 Plain Text
Language : Ukrainian
Text #6
ID : 6
Format : UTF-8
Codec ID : S_TEXT/UTF8
Codec ID/Info : UTF-8 Plain Text
Language : English
Text #7
ID : 7
Format : UTF-8
Codec ID : S_TEXT/UTF8
Codec ID/Info : UTF-8 Plain Text
Title : SDH
Language : English
Скріншоти


Джерело: &
Особиста оцінка: 10 - без зайвих вагань рекомендую всім!


Срібний реліз (на рейтинг впливає 50% завантаженого)
 Трекер:    Зареєстрований   

Завантажити / скачати фільм українською



відео для новачків



 Зареєстрований:   2012-08-24 18:11
 Розмір:   7.28 GB 
 Оцінка фільму:   9.7/10 (Голосів: 9)
   
Інші релізи
   Фріда / Frida (2002) igrik09  3 / 0   2.06 GB   2012-03-18 00:59 
   Фріда / Frida (2002) AVC igrik09  3 / 0   1.89 GB   2012-03-15 02:34 
taras1994 
Почесний оцифрувальник літератури


З нами з: 23.03.12
Востаннє: 30.11.16
Повідомлень: 5096

2012-08-24 22:41  
має бути цікаво, ще не дивився, але вже колись чув про цей фільм.
taras1994 
Почесний оцифрувальник літератури


З нами з: 23.03.12
Востаннє: 30.11.16
Повідомлень: 5096

2012-09-16 18:18  
Фільм про комуністів, там навіть троцького показано, ті комуністи то є антропологічна катастрофа, зараза яка заразила і мексику, також. Горіти їм у пеклі.

Додано через 53 секунди:

і рейтин потрібно додати 18+

waldi-hurtom 
VIP


З нами з: 07.10.12
Востаннє: 03.12.16
Повідомлень: 611

2012-11-29 16:30  
фільм гарний, але український звук у поганому форматі, на моєму VLC player звук смикається, з провалами. Англійська - нормально, а MP3, на жаль, ні! Був вимушений додатковий плеєр встановлювати, BS.Player. Тепер все гаразд.
інфанта2009 
Новенький


З нами з: 15.04.12
Востаннє: 30.10.16
Повідомлень: 6

2012-12-12 18:23  
Цитата:
Фільм про комуністів


Ну, Фріда Кало дійсно була комуністкою. Але ж суть фільму не в тому))

SaintCatherine 
Новенький


З нами з: 18.11.12
Востаннє: 23.07.15
Повідомлень: 1

2015-07-22 19:53  
будь ласка, станьте хтось на роздачу!
Ваш часовий пояс: GMT + 2 Години

Нова тема   Відповісти