Завантажити та скачати торренти українською


Ананасовий експрес / Pineapple Express (2008) 720p 2xUkr/Eng | Sub Eng

Нові коментарі

Нова тема   Відповісти
Автор Повідомлення
DеLight 
Відео Гуртом - фільмокрай
Відео Гуртом - фільмокрай


З нами з: 24.08.11
Востаннє: 17.11.16
Повідомлень: 664

2012-08-24 11:46  
Ананасовий експрес / Pineapple Express (2008) 720p 2xUkr/Eng | Sub Eng

Ананасовий експрес / Pineapple Express (2008) 720p 2xUkr/Eng | Sub Eng



Обкладинка Blu-ray




Жанр: комедія, пригодницький, кримінальний
Країна: США



рейтинг MPAA: R - Дітям до 17 років обов'язкова присутність батьків або дорослого опікуна


Кіностудія / кінокомпанія: Apatow Productions, Columbia Pictures, Relativity Media
Режисер: Девід Ґордон Ґрін / David Gordon Green
Актори: Сет Роґен / Seth Rogen, Джеймс Франко / James Franco, Денні МакБрайд / Danny McBride, Кевін Корріґан / Kevin Corrigan, Крейґ Робінсон / Craig Robinson, Ґарі Кол / Gary Cole, Розі Перез / Rosie Perez, Ed Begley Jr. / Ед Беґлі Мол., Нора Данн / Nora Dunn, Ембер Герд / Amber Heard, Джо Ло Труліо / Joe Lo Truglio, Артур Напіонтек / Arthur Napiontek, Cleo King / Клео Кінґ, Білл Хадер / Bill Hader, Джеймс Ремар / James Remar

Сюжет:
Роздовбай випадково стає свідком вбивства і, прихопивши свого друзяку, любителя покурити травичку і такого ж невдаху, як і він, намагається звалити з міста, рятуючись від поганих хлопців. Справа пахне смаженим, адже мафія вирішила змусити приятелів замовкнути назавжди.





Тривалість: 01:52:02
Якість: 720p [джерело: BD-Remux 1080p]

Відео:
кодек:
розмір кадру: 1280 x 534
бітрейт: 4 427 кб/с

Аудіо #1:
мова: українська
переклад: багатоголосий закадровий
кодек: 2.0
бітрейт: 192 кб/с

Аудіо #2: »завантажити«
мова: українська
переклад: двоголосий закадровий
кодек: 2.0
бітрейт: 192 кб/с

Аудіо #3:
мова: англійська
переклад: оригінал
кодек: 5.1
бітрейт: 1510 кб/с

Субтитри:
мова: англійська
тип: програмні (м'які)
формат: *.srt



->переглянути<-

Код:
General
Unique ID                      : 201535619776817376438248709294126679477 (0x979E59373901E045B0548FA539DA45B5)
Complete name                  : D:\Torrents\Pineapple Express (2008) 720p [Ukr, Eng] [Hurtom & HQCLUB].mkv
Format                         : Matroska
Format version                 : Version 2
File size                      : 4.89 GiB
Duration                       : 1h 52mn
Overall bit rate               : 6 253 Kbps
Movie name                     : Pineapple Express (2008) 720p [Ukr, Eng] [Hurtom & HQCLUB] by Delight
Encoded date                   : UTC 2012-08-24 08:28:18
Writing application            : mkvmerge v5.7.0 ('The Whirlwind') built on Jul  8 2012 20:08:51
Writing library                : libebml v1.2.3 + libmatroska v1.3.0

Video
ID                             : 1
Format                         : AVC
Format/Info                    : Advanced Video Codec
Format profile                 : [email protected]
Format settings, CABAC         : Yes
Format settings, ReFrames      : 9 frames
Codec ID                       : V_MPEG4/ISO/AVC
Duration                       : 1h 52mn
Bit rate                       : 4 427 Kbps
Width                          : 1 280 pixels
Height                         : 534 pixels
Display aspect ratio           : 2.40:1
Frame rate mode                : Constant
Frame rate                     : 23.976 fps
Color space                    : YUV
Chroma subsampling             : 4:2:0
Bit depth                      : 8 bits
Scan type                      : Progressive
Bits/(Pixel*Frame)             : 0.270
Stream size                    : 3.46 GiB (71%)
Title                          : Pineapple Express (2008) 720p
Writing library                : core 98 r1649 20cbe10
Encoding settings              : cabac=1 / ref=9 / deblock=1:-3:-3 / analyse=0x3:0x133 / me=umh / subme=10 / psy=1 / psy_rd=1.00:0.20 / mixed_ref=1 / me_range=24 / chroma_me=1 / trellis=2 / 8x8dct=1 / cqm=0 / deadzone=21,11 / fast_pskip=0 / chroma_qp_offset=-3 / threads=6 / sliced_threads=0 / nr=0 / decimate=1 / interlaced=0 / constrained_intra=0 / bframes=10 / b_pyramid=2 / b_adapt=2 / b_bias=0 / direct=1 / weightb=1 / weightp=2 / keyint=250 / keyint_min=25 / scenecut=40 / intra_refresh=0 / rc_lookahead=40 / rc=crf / mbtree=0 / crf=18.0 / qcomp=0.60 / qpmin=10 / qpmax=51 / qpstep=4 / vbv_maxrate=16500 / vbv_bufsize=16000 / crf_max=0.0 / ip_ratio=1.40 / pb_ratio=1.30 / aq=2:0.70 / nal_hrd=none
Language                       : English
Default                        : Yes
Forced                         : No

Audio #1
ID                             : 2
Format                         : AC-3
Format/Info                    : Audio Coding 3
Mode extension                 : CM (complete main)
Format settings, Endianness    : Big
Codec ID                       : A_AC3
Duration                       : 1h 52mn
Bit rate mode                  : Constant
Bit rate                       : 192 Kbps
Channel(s)                     : 2 channels
Channel positions              : Front: L R
Sampling rate                  : 48.0 KHz
Bit depth                      : 16 bits
Compression mode               : Lossy
Stream size                    : 154 MiB (3%)
Title                          : 2.0; 192 kbps; багатоголосий закадровий {1+1}
Language                       : Ukrainian
Default                        : Yes
Forced                         : No

Audio #2
ID                             : 3
Format                         :
Format/Info                    : Digital Theater Systems
Codec ID                       : A_DTS
Duration                       : 1h 52mn
Bit rate mode                  : Constant
Bit rate                       : 1 510 Kbps
Channel(s)                     : 6 channels
Channel positions              : Front: L C R, Side: L R, LFE
Sampling rate                  : 48.0 KHz
Bit depth                      : 24 bits
Compression mode               : Lossy
Stream size                    : 1.18 GiB (24%)
Title                          : 5.1; 1536 kbps; original
Language                       : English
Default                        : No
Forced                         : No

Text
ID                             : 4
Format                         : UTF-8
Codec ID                       : S_TEXT/UTF8
Codec ID/Info                  : UTF-8 Plain Text
Title                          : full
Language                       : English
Default                        : No
Forced                         : No
->переглянути<-












Джерело: &
Вдячний за працю: МАКАРОННІК, ratbol i sando7 - запис звуку з ТБ, Gelios - синхронізація доріжок та українізований постер, Віктор - готові українські субтитри
Особиста оцінка: 8




 Трекер:    Зареєстрований   

Завантажити / скачати фільм українською



відео для новачків



 Зареєстрований:   2012-08-24 11:46
 Розмір:   4.89 GB 
 Оцінка фільму:   8.4/10 (Голосів: 20)
   
Інші релізи
   Ананасовий експрес / Pineapple Express (2008) 2хUkr Gelios  13 / 0   1.68 GB   2012-08-23 11:03 
braveboy 
Відео Гуртом - команда HD
Відео Гуртом - команда HD


З нами з: 15.06.10
Востаннє: 29.10.16
Повідомлень: 958

2012-08-24 17:12  
Delight` написано:
бітрейт: 4 422 кб/с


Delight` написано:
MediaInfo
Bit rate : 4 427 Kbps

DеLight 
Відео Гуртом - фільмокрай
Відео Гуртом - фільмокрай


З нами з: 24.08.11
Востаннє: 17.11.16
Повідомлень: 664

2012-08-24 17:35  
braveboy
Підкоректував, дякую!

zvbm 
Свій


З нами з: 20.05.12
Востаннє: 04.02.16
Повідомлень: 76

2012-09-29 14:31  
Цей фільм тільки по накурці може сподобатись!!!!
Virake 
Localize Team
Localize Team


З нами з: 07.07.09
Востаннє: 06.12.16
Повідомлень: 4062

2012-09-29 19:17  
непогана така комедія, один раз подивитися можна. 6\10.
waldi-hurtom 
VIP


З нами з: 07.10.12
Востаннє: 05.12.16
Повідомлень: 611

2012-12-03 18:51  
Не зміг додивитись до кінця. Мабуть, недостатньо дурнуватий настрій. Бувають фільми і гірші, на щастя, ніхто не примушує їх дивитись! Не розумію, хто наголосував 7 балів? 3 бали!
Віктор 
Відео Гуртом - субтитрування
Відео Гуртом - субтитрування


З нами з: 09.01.10
Востаннє: 06.12.16
Повідомлень: 8663

2013-06-09 16:07  
З двома укр. буде? http://toloka.to/t39092-30#550507 І укр. саби можна додати, є на сервері.
DеLight 
Відео Гуртом - фільмокрай
Відео Гуртом - фільмокрай


З нами з: 24.08.11
Востаннє: 17.11.16
Повідомлень: 664

2013-06-09 16:54  
Віктор
Ні, оновлювати контейнер не буду. Зараз додам посилання на доріжку і саби в оформлення.
Дякую, що попередив про наявність.

Додано через 13 хвилин 24 секунди:

Готово, все додав, підкоректував.

Додано через 23 хвилини 2 секунди:

Укр. субтитри для розширеної версії. Схоже, для театралки не підійдуть.

Окремо субтитри unrated version:
Субтитри: »завантажити«
мова: українська
тип: програмні (м'які)
формат: *.srt

andreu1999 
Свій


З нами з: 20.10.14
Востаннє: 06.12.16
Повідомлень: 77

2015-11-17 00:34  
будь-ласка дайте швидкості) буду вдячний)
andreu1999 
Свій


З нами з: 20.10.14
Востаннє: 06.12.16
Повідомлень: 77

2015-11-17 16:29  
andreu1999 так народ буть ласка станете на роздачу?
Ваш часовий пояс: GMT + 2 Години

Нова тема   Відповісти